<?xml version="1.0" standalone="no"?>
<!DOCTYPE svg PUBLIC "-//W3C//DTD SVG 1.1//EN" "http://www.w3.org/Graphics/SVG/1.1/DTD/svg11.dtd" >
<svg xmlns="http://www.w3.org/2000/svg" xmlns:xlink="http://www.w3.org/1999/xlink" version="1.1">
<metadata>
Created by FontForge 20170731 at Thu Oct  7 15:14:37 2010
 By Aleksey,,,
(c) 2010 Klim Type Foundry. All rights reserved.
</metadata>
<defs>
<font id="TiemposHeadline-Regular" horiz-adv-x="500" >
  <font-face 
    font-family="Tiempos Headline Regular"
    font-weight="400"
    font-stretch="normal"
    units-per-em="1000"
    panose-1="2 2 5 3 6 3 3 6 4 3"
    ascent="783"
    descent="-217"
    x-height="524"
    cap-height="702"
    bbox="-98 -230 1209 1036"
    underline-thickness="30"
    underline-position="-160"
    unicode-range="U+0020-FB04"
  />
<missing-glyph horiz-adv-x="960" 
d="M90 0v780h780v-780h-780zM480 345l-279 -279h558zM201 714l279 -279l279 279h-558zM435 390l-275 275v-550zM525 390l275 -275v550z" />
    <glyph glyph-name="ff" unicode="ff" horiz-adv-x="640" 
d="M87 530v21q0 99 61.5 156.5t154.5 57.5q83 0 141 -40q50 58 145 58q116 0 116 -78q0 -36 -30 -53h-62q3 17 3 37q0 65 -45 65q-61 0 -61 -100v-130h127v-41h-127v-403q0 -29 18 -38.5t69 -12.5v-29h-264v29q39 2 52.5 11t13.5 36v407h-200v-407q0 -27 13.5 -36t52.5 -11
v-29h-244v29q39 2 52.5 11t13.5 36v407h-73v20zM399 586q0 48 13 83q-40 67 -108 67q-105 0 -105 -144v-68h200v62z" />
    <glyph glyph-name="fi" unicode="fi" horiz-adv-x="592" 
d="M510 534v-458q0 -27 13.5 -36t52.5 -11v-29h-243v29q39 2 52.5 11t13.5 36v407h-200v-407q0 -27 13.5 -36t52.5 -11v-29h-244v29q39 2 52.5 11t13.5 36v407h-73v20l73 27v30q0 108 61.5 165.5t159.5 57.5q67 0 105 -21.5t38 -61.5q0 -34 -33 -53h-68q3 16 3 36
q0 70 -65 70q-43 0 -66 -37.5t-23 -106.5v-85h251l39 10h21z" />
    <glyph glyph-name="fl" unicode="fl" horiz-adv-x="592" 
d="M510 783v-707q0 -27 13.5 -36t52.5 -11v-29h-243v29q39 2 52.5 11t13.5 36v594q-35 84 -109 84q-91 0 -91 -131v-99h121v-41h-121v-407q0 -27 13.5 -36t52.5 -11v-29h-244v29q39 2 52.5 11t13.5 36v407h-73v20l73 27v56q0 94 55 145.5t145 51.5q68 0 118 -31l89 31h16z
" />
    <glyph glyph-name="ffi" unicode="ffi" horiz-adv-x="903" 
d="M87 530v21q0 99 61.5 156.5t154.5 57.5q90 0 150 -47q60 65 166 65q67 0 105.5 -21.5t38.5 -61.5q0 -33 -34 -53h-68q3 16 3 36q0 70 -64 70q-44 0 -67 -37.5t-23 -106.5v-85h251l39 10h22v-458q0 -27 13.5 -36t52.5 -11v-29h-244v29q39 2 52.5 11t13.5 36v407h-200v-407
q0 -27 13.5 -36t52.5 -11v-29h-243v29q39 2 52.5 11t13.5 36v407h-200v-407q0 -27 13.5 -36t52.5 -11v-29h-244v29q39 2 52.5 11t13.5 36v407h-73v20zM399 560q0 58 18 100q-40 76 -113 76q-105 0 -105 -144v-68h200v36z" />
    <glyph glyph-name="ffl" unicode="ffl" horiz-adv-x="903" 
d="M303 765q85 0 143 -41q53 59 153 59q67 0 117 -31l89 31h17v-707q0 -27 13.5 -36t52.5 -11v-29h-244v29q39 2 52.5 11t13.5 36v594q-34 84 -109 84q-91 0 -91 -131v-99h121v-41h-121v-407q0 -27 13.5 -36t52.5 -11v-29h-243v29q39 2 52.5 11t13.5 36v407h-200v-407
q0 -27 13.5 -36t52.5 -11v-29h-244v29q39 2 52.5 11t13.5 36v407h-73v20l73 27v21q0 99 61.5 156.5t154.5 57.5zM399 524v62q0 48 13 81q-40 69 -108 69q-105 0 -105 -144v-68h200z" />
    <glyph glyph-name="f_b" unicode="fb" horiz-adv-x="900" 
d="M399 61v609q-35 84 -109 84q-91 0 -91 -131v-99h121v-41h-121v-407q0 -27 13.5 -36t52.5 -11v-29h-244v29q39 2 52.5 11t13.5 36v407h-73v20l73 27v56q0 94 55 145.5t145 51.5q68 0 118 -31l89 31h16v-340q65 91 168 91q93 0 146 -64.5t53 -176.5q0 -139 -75 -221
t-187 -82q-134 0 -216 71zM614 22q68 0 109 64.5t41 162.5q0 95 -37 155.5t-111 60.5q-62 0 -106 -46v-276q0 -121 104 -121z" />
    <glyph glyph-name="f_f_b" unicode="ffb" horiz-adv-x="1211" 
d="M710 61v609q-34 84 -109 84q-91 0 -91 -131v-99h121v-41h-121v-407q0 -27 13.5 -36t52.5 -11v-29h-243v29q39 2 52.5 11t13.5 36v407h-200v-407q0 -27 13.5 -36t52.5 -11v-29h-244v29q39 2 52.5 11t13.5 36v407h-73v20l73 27v21q0 99 61.5 156.5t154.5 57.5q85 0 143 -41
q53 59 153 59q67 0 117 -31l89 31h17v-340q63 91 168 91q93 0 145.5 -64.5t52.5 -176.5q0 -139 -75 -221t-187 -82q-134 0 -216 71zM926 22q68 0 108.5 64.5t40.5 162.5q0 95 -37 155.5t-111 60.5q-62 0 -105 -46v-276q0 -121 104 -121zM399 586q0 48 13 81q-40 69 -108 69
q-105 0 -105 -144v-68h200v62z" />
    <glyph glyph-name="f_h" unicode="fh" horiz-adv-x="909" 
d="M399 76v594q-35 84 -109 84q-91 0 -91 -131v-99h119v-41h-119v-407q0 -27 13.5 -36t52.5 -11v-29h-244v29q39 2 52.5 11t13.5 36v407h-73v20l73 27v56q0 94 55 145.5t145 51.5q68 0 118 -31l89 31h16v-345q85 96 183 96q139 0 139 -164v-294q0 -27 13.5 -36t52.5 -11v-29
h-243v29q39 2 52 11t13 36v292q0 50 -20 73.5t-64 23.5q-59 0 -126 -52v-337q0 -27 13.5 -36t52.5 -11v-29h-243v29q39 2 52.5 11t13.5 36z" />
    <glyph glyph-name="f_f_h" unicode="ffh" horiz-adv-x="1221" 
d="M710 76v594q-34 84 -109 84q-91 0 -91 -131v-99h121v-41h-121v-407q0 -27 13.5 -36t52.5 -11v-29h-243v29q39 2 52.5 11t13.5 36v407h-200v-407q0 -27 13.5 -36t52.5 -11v-29h-244v29q39 2 52.5 11t13.5 36v407h-73v20l73 27v21q0 99 61.5 156.5t154.5 57.5q85 0 143 -41
q53 59 153 59q67 0 117 -31l89 31h17v-345q85 96 183 96q138 0 138 -164v-294q0 -27 13.5 -36t52.5 -11v-29h-243v29q39 2 52 11t13 36v292q0 50 -20 73.5t-63 23.5q-61 0 -126 -52v-337q0 -27 13 -36t52 -11v-29h-243v29q39 2 52.5 11t13.5 36zM399 586q0 48 13 81
q-40 69 -108 69q-105 0 -105 -144v-68h200v62z" />
    <glyph glyph-name="f_idieresis" unicode="f&#xef;" horiz-adv-x="592" 
d="M510 534v-458q0 -27 13.5 -36t52.5 -11v-29h-243v29q39 2 52.5 11t13.5 36v407h-200v-407q0 -27 13.5 -36t52.5 -11v-29h-244v29q39 2 52.5 11t13.5 36v407h-73v20l73 27v30q0 107 58 165t152 58q65 0 102 -28t37 -74q0 -43 -35 -61h-66q7 23 7 46q0 87 -62 87
q-81 0 -81 -144v-85h251l39 10h21zM476 674q0 28 19.5 47.5t46.5 19.5q28 0 47.5 -19.5t19.5 -47.5t-19.5 -47.5t-47.5 -19.5q-27 0 -46.5 19.5t-19.5 47.5z" />
    <glyph glyph-name="f_f_idieresis" unicode="ff&#xef;" horiz-adv-x="903" 
d="M303 765q89 0 148 -45q57 63 157 63q65 0 102 -28t37 -74q0 -42 -34 -61h-67q7 23 7 46q0 87 -62 87q-81 0 -81 -144v-85h251l39 10h22v-458q0 -27 13.5 -36t52.5 -11v-29h-244v29q39 2 52.5 11t13.5 36v407h-200v-407q0 -27 13.5 -36t52.5 -11v-29h-243v29q39 2 52.5 11
t13.5 36v407h-200v-407q0 -27 13.5 -36t52.5 -11v-29h-244v29q39 2 52.5 11t13.5 36v407h-73v20l73 27v21q0 99 61.5 156.5t154.5 57.5zM399 524v36q0 56 17 101q-38 75 -112 75q-105 0 -105 -144v-68h200zM787 674q0 28 19.5 47.5t46.5 19.5q28 0 48 -19.5t20 -47.5
t-20 -47.5t-48 -19.5q-27 0 -46.5 19.5t-19.5 47.5z" />
    <glyph glyph-name="f_j" unicode="fj" horiz-adv-x="580" 
d="M399 483h-200v-407q0 -27 13.5 -36t52.5 -11v-29h-244v29q39 2 52.5 11t13.5 36v407h-73v20l73 27v30q0 108 61.5 165.5t159.5 57.5q67 0 105 -21.5t38 -61.5q0 -34 -33 -53h-68q3 16 3 36q0 70 -65 70q-43 0 -66 -37.5t-23 -106.5v-85h251l39 10h21v-445
q0 -69 -7.5 -103.5t-28.5 -68.5q-38 -61 -134 -138l-15 13l41 71q15 26 22.5 58.5t9 59t1.5 74.5v428z" />
    <glyph glyph-name="f_f_j" unicode="ffj" horiz-adv-x="891" 
d="M710 483h-200v-407q0 -27 13.5 -36t52.5 -11v-29h-243v29q39 2 52.5 11t13.5 36v407h-200v-407q0 -27 13.5 -36t52.5 -11v-29h-244v29q39 2 52.5 11t13.5 36v407h-73v20l73 27v21q0 99 61.5 156.5t154.5 57.5q90 0 150 -47q60 65 166 65q67 0 105.5 -21.5t38.5 -61.5
q0 -33 -34 -53h-68q3 16 3 36q0 70 -64 70q-44 0 -67 -37.5t-23 -106.5v-85h251l39 10h22v-445q0 -69 -8 -103t-29 -69q-38 -61 -134 -138l-15 13l41 71q15 26 22.5 58.5t9 59t1.5 74.5v428zM399 560q0 58 18 100q-40 76 -113 76q-105 0 -105 -144v-68h200v36z" />
    <glyph glyph-name="f_k" unicode="fk" horiz-adv-x="869" 
d="M521 285l160 145q26 24 26 39q0 13 -12.5 17.5t-52.5 8.5v29h204v-29q-52 -11 -80 -37l-143 -132l246 -305v-21h-121zM399 76v594q-35 84 -109 84q-91 0 -91 -131v-99h121v-41h-121v-407q0 -27 13.5 -36t52.5 -11v-29h-244v29q39 2 52.5 11t13.5 36v407h-73v20l73 27v56
q0 94 55 145.5t145 51.5q68 0 118 -31l89 31h16v-707q0 -27 13.5 -36t52.5 -11v-29h-243v29q39 2 52.5 11t13.5 36z" />
    <glyph glyph-name="f_f_k" unicode="ffk" horiz-adv-x="1181" 
d="M710 76v594q-34 84 -109 84q-91 0 -91 -131v-99h121v-41h-121v-407q0 -27 13.5 -36t52.5 -11v-29h-243v29q39 2 52.5 11t13.5 36v407h-200v-407q0 -27 13.5 -36t52.5 -11v-29h-244v29q39 2 52.5 11t13.5 36v407h-73v20l73 27v21q0 99 61.5 156.5t154.5 57.5q85 0 143 -41
q53 59 153 59q67 0 117 -31l89 31h17v-707q0 -27 13.5 -36t52.5 -11v-29h-244v29q39 2 52.5 11t13.5 36zM832 285l160 145q26 23 26 39q0 13 -12.5 17.5t-52.5 8.5v29h205v-29q-51 -11 -80 -37l-144 -132l247 -305v-21h-122zM399 586q0 48 13 81q-40 69 -108 69
q-105 0 -105 -144v-68h200v62z" />
    <glyph glyph-name=".notdef" horiz-adv-x="960" 
d="M90 0v780h780v-780h-780zM480 345l-279 -279h558zM201 714l279 -279l279 279h-558zM435 390l-275 275v-550zM525 390l275 -275v550z" />
    <glyph glyph-name=".null" horiz-adv-x="0" 
 />
    <glyph glyph-name="nonmarkingreturn" horiz-adv-x="333" 
 />
    <glyph glyph-name="space" unicode=" " horiz-adv-x="202" 
 />
    <glyph glyph-name="exclam" unicode="!" horiz-adv-x="251" 
d="M50 65q0 31 22 53.5t53 22.5t53 -22t22 -54q0 -31 -22 -53t-53 -22t-53 22t-22 53zM138 210h-26l-59 492h144z" />
    <glyph glyph-name="quotedbl" unicode="&#x22;" horiz-adv-x="283" 
d="M79 484h-10l-30 128q-17 68 -17 93t13.5 42t38.5 17t38 -16.5t13 -42.5q0 -29 -16 -93zM214 484h-9l-31 128q-16 64 -16 93q0 25 13.5 42t37.5 17q25 0 38.5 -17t13.5 -42t-17 -93z" />
    <glyph glyph-name="numbersign" unicode="#" horiz-adv-x="541" 
d="M457 233h-112l-76 -242l-37 11l73 231h-145l-76 -242l-37 11l73 231h-99v33h109l60 190h-107v33h118l71 224l36 -12l-67 -212h145l71 224l37 -12l-68 -212h94v-33h-104l-60 -190h101v-33zM230 456l-59 -190h144l60 190h-145z" />
    <glyph glyph-name="dollar" unicode="$" horiz-adv-x="528" 
d="M250 -10q-14 0 -40 2l-18 -105h-31l18 109q-92 14 -144 59l-7 171h34q28 -152 124 -189l47 269l-12 5q-94 36 -140 80.5t-46 125.5q0 86 60 140.5t160 54.5q23 0 47 -3l17 99h31l-18 -103q74 -14 127 -51v-149h-33q-20 122 -101 157l-43 -248q110 -43 159.5 -90
t49.5 -130q0 -95 -69 -149.5t-172 -54.5zM391 149q0 52 -28.5 82.5t-100.5 62.5l-46 -265q17 -3 34 -3q65 0 103 34t38 89zM134 563q0 -51 25.5 -79.5t93.5 -57.5l42 246q-24 4 -40 4q-56 0 -88.5 -31.5t-32.5 -81.5z" />
    <glyph glyph-name="percent" unicode="%" horiz-adv-x="753" 
d="M31 544q0 77 48.5 122.5t116.5 45.5t116.5 -45.5t48.5 -122.5q0 -76 -48.5 -121.5t-116.5 -45.5t-116.5 45.5t-48.5 121.5zM112 544q0 -62 20.5 -101t63.5 -39q42 0 62.5 39t20.5 101t-20.5 101t-62.5 39q-43 0 -63.5 -39t-20.5 -101zM137 -10l438 722h42l-439 -722h-41z
M722 158q0 -77 -48.5 -122.5t-116.5 -45.5t-116 46t-48 122t48 121.5t116 45.5t116.5 -45.5t48.5 -121.5zM641 158q0 62 -20.5 101t-63.5 39q-42 0 -62.5 -39t-20.5 -101t20.5 -101t62.5 -39q43 0 63.5 39t20.5 101z" />
    <glyph glyph-name="ampersand" unicode="&#x26;" horiz-adv-x="681" 
d="M10 180q0 136 156 192l-3 4q-68 77 -68 158q0 83 54 130.5t141 47.5q84 0 133 -42t49 -108q0 -117 -174 -173l197 -218q32 61 32 127q0 36 -21 48.5t-69 14.5v30h234v-30q-52 -2 -73 -15.5t-28 -56.5q-14 -78 -52 -143l49 -54q50 -57 110 -62v-30h-152q-34 19 -77 64
q-87 -74 -208 -74q-94 0 -162 49t-68 141zM289 45q74 0 135 45l-3 4l-237 258q-67 -40 -67 -138q0 -79 47 -124t125 -45zM189 572q0 -15 2 -29t8.5 -27.5t10.5 -22t15 -22.5t14.5 -18t17 -18.5t14.5 -15.5l9 -10q57 24 79 62t22 95q0 49 -24 81.5t-72 32.5q-44 0 -70 -29
t-26 -79z" />
    <glyph glyph-name="quotesingle" unicode="'" horiz-adv-x="148" 
d="M79 484h-10l-30 128q-17 68 -17 93t13.5 42t38.5 17t38 -16.5t13 -42.5q0 -29 -16 -93z" />
    <glyph glyph-name="parenleft" unicode="(" horiz-adv-x="346" 
d="M60 314q0 256 215 456h42q-162 -179 -162 -456t162 -456h-42q-215 200 -215 456z" />
    <glyph glyph-name="parenright" unicode=")" horiz-adv-x="346" 
d="M286 314q0 -255 -215 -456h-43q162 178 162 456t-162 456h43q215 -201 215 -456z" />
    <glyph glyph-name="asterisk" unicode="*" horiz-adv-x="411" 
d="M343 627l-127 -45l127 -46q20 -7 27 -21t-1 -28q-9 -14 -23.5 -15t-31.5 13l-104 88l25 -133q4 -21 -4.5 -33.5t-24.5 -12.5t-25 12.5t-5 33.5l24 133l-102 -88q-17 -14 -31.5 -13t-23.5 15q-8 14 -1.5 28t26.5 21l127 46l-127 45q-20 7 -26.5 21.5t1.5 27.5
q9 14 23.5 15t31.5 -13l102 -87l-24 133q-4 21 5 33.5t25 12.5t24.5 -12.5t4.5 -33.5l-25 -133l104 87q17 14 31.5 13t23.5 -15q8 -13 1 -27.5t-27 -21.5z" />
    <glyph glyph-name="plus" unicode="+" horiz-adv-x="566" 
d="M255 590h55v-191h193v-56h-193v-192h-55v192h-191v56h191v191z" />
    <glyph glyph-name="comma" unicode="," horiz-adv-x="214" 
d="M127 1h-37q-23 5 -38 21t-15 42q0 31 20.5 49.5t50.5 18.5q35 0 55.5 -25.5t20.5 -66.5q0 -67 -40.5 -110t-115.5 -47v27q90 15 99 91z" />
    <glyph glyph-name="hyphen" unicode="-" horiz-adv-x="320" 
d="M290 276h-260v53h260v-53z" />
    <glyph glyph-name="period" unicode="." horiz-adv-x="214" 
d="M30 67q0 32 22.5 54.5t54.5 22.5t54.5 -22.5t22.5 -54.5t-22.5 -54.5t-54.5 -22.5t-54.5 22.5t-22.5 54.5z" />
    <glyph glyph-name="slash" unicode="/" horiz-adv-x="374" 
d="M350 770l-295 -911h-48l295 911h48z" />
    <glyph glyph-name="zero" unicode="0" horiz-adv-x="616" 
d="M308 22q42 0 72.5 28t46 77t22.5 104t7 120t-7 120t-22.5 104t-46 77t-72.5 28q-147 0 -147 -329t147 -329zM308 -10q-127 0 -202 101t-75 260t75 260t202 101t202 -101t75 -260t-75 -260t-202 -101z" />
    <glyph glyph-name="one" unicode="1" horiz-adv-x="380" 
d="M366 0h-341v30q77 5 95 17.5t18 58.5v466h-114v28l42 8q66 12 102 33.5t67 69.5h23v-605q0 -46 18 -58.5t90 -17.5v-30z" />
    <glyph glyph-name="two" unicode="2" horiz-adv-x="520" 
d="M124 101h184q64 0 93.5 17.5t64.5 85.5h27l-37 -204h-452v24l179 182q91 93 125.5 153.5t34.5 129.5q0 63 -34 99t-97 36q-96 0 -164 -88l-20 14q86 162 237 162q91 0 143 -48t52 -132q0 -45 -20 -90.5t-61.5 -93.5t-76 -82t-94 -87t-84.5 -78z" />
    <glyph glyph-name="three" unicode="3" horiz-adv-x="506" 
d="M275 402q92 -8 149 -62.5t57 -131.5q0 -101 -70 -159.5t-174 -58.5q-108 0 -170 41.5t-62 100.5q0 52 45 73h71q-7 -21 -7 -54q0 -58 33 -93.5t91 -35.5q61 0 95.5 42.5t34.5 109.5q0 79 -52.5 123t-139.5 44h-31l-7 24q94 29 141 64.5t47 97.5q0 48 -28.5 77t-81.5 29
q-86 0 -145 -77l-18 15q66 141 214 141q77 0 123.5 -40.5t46.5 -109.5q0 -66 -49 -105.5t-113 -54.5z" />
    <glyph glyph-name="four" unicode="4" horiz-adv-x="586" 
d="M68 233h261v345zM329 96v98h-320v24l365 484h71v-469h120v-39h-120v-98q0 -40 15 -52t71 -18v-26h-288v26q56 6 71 18t15 52z" />
    <glyph glyph-name="five" unicode="5" horiz-adv-x="496" 
d="M431 594h-286l-23 -138q163 -3 256 -62t93 -180q0 -101 -66 -162.5t-171 -61.5t-164.5 41t-59.5 100q0 50 44 74h72q-8 -34 -8 -57q0 -126 118 -126q63 0 101.5 39.5t38.5 105.5q0 94 -80 142t-229 49l59 344h238q28 0 39 7t28 37h26z" />
    <glyph glyph-name="six" unicode="6" horiz-adv-x="566" 
d="M449 688q-257 -64 -291 -316q74 72 179 72q88 0 144.5 -55t56.5 -151q0 -111 -68.5 -179.5t-172.5 -68.5q-124 0 -194.5 83.5t-70.5 212.5q0 164 107 281t291 143zM273 386q-64 0 -118 -38q-2 -34 -2 -53q0 -126 39 -199t107 -73q62 0 96 47.5t34 125.5q0 87 -40.5 138.5
t-115.5 51.5z" />
    <glyph glyph-name="seven" unicode="7" horiz-adv-x="487" 
d="M412 591h-271q-35 0 -54 -18.5t-42 -68.5h-31l43 198h426v-31l-285 -671h-100z" />
    <glyph glyph-name="eight" unicode="8" horiz-adv-x="545" 
d="M486 547q0 -58 -44.5 -97.5t-104.5 -53.5l42 -19q137 -65 137 -186q0 -88 -64 -144.5t-180 -56.5q-110 0 -177 49.5t-67 130.5q0 63 45 106t116 64l-22 11q-113 55 -113 173q0 81 59 134.5t159 53.5q99 0 156.5 -45t57.5 -120zM319 279l-108 51q-86 -53 -86 -153
q0 -68 40 -111.5t107 -43.5q68 0 107 34t39 98q0 80 -99 125zM243 445l75 -38q79 53 79 140q0 59 -33.5 96t-92.5 37q-55 0 -88 -32t-33 -83q0 -46 22 -70.5t71 -49.5z" />
    <glyph glyph-name="nine" unicode="9" horiz-adv-x="566" 
d="M117 14q255 64 291 316q-74 -72 -179 -72q-88 0 -144.5 55t-56.5 151q0 111 68.5 179.5t172.5 68.5q124 0 194.5 -83.5t70.5 -212.5q0 -164 -107 -281t-291 -143zM293 316q61 0 117 37q3 27 3 54q0 126 -39 199t-107 73q-62 0 -96 -47.5t-34 -125.5q0 -87 40.5 -138.5
t115.5 -51.5z" />
    <glyph glyph-name="colon" unicode=":" horiz-adv-x="214" 
d="M30 67q0 32 22.5 54.5t54.5 22.5t54.5 -22.5t22.5 -54.5t-22.5 -54.5t-54.5 -22.5t-54.5 22.5t-22.5 54.5zM30 401q0 32 22.5 54.5t54.5 22.5t54.5 -22.5t22.5 -54.5t-22.5 -54.5t-54.5 -22.5t-54.5 22.5t-22.5 54.5z" />
    <glyph glyph-name="semicolon" unicode=";" horiz-adv-x="214" 
d="M127 1h-37q-23 5 -38 21t-15 42q0 31 20.5 49.5t50.5 18.5q35 0 55.5 -25.5t20.5 -66.5q0 -67 -40.5 -110t-115.5 -47v27q90 15 99 91zM30 401q0 32 22.5 54.5t54.5 22.5t54.5 -22.5t22.5 -54.5t-22.5 -54.5t-54.5 -22.5t-54.5 22.5t-22.5 54.5z" />
    <glyph glyph-name="less" unicode="&#x3c;" horiz-adv-x="416" 
d="M41 365v9l311 190v-66l-216 -128l216 -129v-66z" />
    <glyph glyph-name="equal" unicode="=" horiz-adv-x="576" 
d="M69 273v55h439v-55h-439zM69 413v55h439v-55h-439z" />
    <glyph glyph-name="greater" unicode="&#x3e;" horiz-adv-x="416" 
d="M375 374v-9l-311 -190v66l216 129l-216 128v66z" />
    <glyph glyph-name="question" unicode="?" horiz-adv-x="434" 
d="M315 581q0 48 -25.5 76t-71.5 28t-69.5 -30t-23.5 -76q0 -3 0.5 -24t0.5 -23h-82q-25 19 -25 52q0 56 56.5 92t140.5 36q92 0 146 -43t54 -125q0 -57 -35.5 -99.5t-104.5 -90.5q-42 -30 -59.5 -56.5t-17.5 -68.5v-27h-14q-15 15 -28.5 42.5t-13.5 57.5q0 74 82 138
q32 25 47 39t29 41.5t14 60.5zM123 65q0 31 22 53.5t53 22.5t53 -22t22 -54q0 -31 -22 -53t-53 -22t-53 22t-22 53z" />
    <glyph glyph-name="at" unicode="@" horiz-adv-x="856" 
d="M591 75q-71 0 -94.5 51.5t-4.5 131.5q-84 -182 -179 -182q-43 0 -69 33.5t-26 93.5q0 110 77 203.5t172 93.5q57 0 92 -35l67 36h20l-28 -88l-51 -204q-27 -104 33 -104q74 0 115 81t41 191q0 126 -71 203.5t-203 77.5q-112 0 -199.5 -62t-132.5 -160t-45 -210
q0 -142 85.5 -226t224.5 -84q83 0 143 17t130 57l10 -15q-54 -45 -131.5 -72t-161.5 -27q-170 0 -271.5 93t-101.5 256q0 120 56 226t160.5 172t233.5 66q160 0 251 -85.5t91 -226.5q0 -121 -65.5 -211.5t-167.5 -90.5zM352 134q45 0 97 88t85 214q-16 36 -61 36
t-83.5 -43.5t-59 -104.5t-20.5 -119q0 -31 11 -51t31 -20z" />
    <glyph glyph-name="A" unicode="A" horiz-adv-x="711" 
d="M505 114l-51 125h-279l-48 -125q-10 -23 -10 -39q0 -23 20 -33t69 -12v-30h-201v30q17 3 26 6t18.5 10.5t14.5 20.5l225 572l-30 70h126l262 -642q7 -18 20.5 -25.5t38.5 -11.5v-30h-279v30q48 2 67.5 11.5t19.5 32.5q0 18 -9 40zM312 590l-122 -314h249z" />
    <glyph glyph-name="B" unicode="B" horiz-adv-x="640" 
d="M314 343h-84v-240q0 -39 20.5 -53t70.5 -14h11q150 0 150 153q0 70 -41.5 112t-126.5 42zM292 666h-62v-285h62q156 0 156 145q0 67 -40.5 103.5t-115.5 36.5zM347 0h-319v30q55 7 69.5 18.5t14.5 52.5v500q0 41 -14.5 52.5t-69.5 18.5v30h299q116 0 177.5 -44t61.5 -130
q0 -71 -55.5 -113t-133.5 -51q101 -4 163 -50.5t62 -124.5q0 -88 -66.5 -138.5t-188.5 -50.5z" />
    <glyph glyph-name="C" unicode="C" horiz-adv-x="641" 
d="M372 712q127 0 218 -59l1 -153h-32q-35 175 -186 175q-104 0 -159.5 -88t-55.5 -224q0 -146 59.5 -240.5t164.5 -94.5q76 0 124 48t72 153h35l-14 -182q-93 -57 -223 -57q-158 0 -251.5 95t-93.5 250q0 170 96.5 273.5t244.5 103.5z" />
    <glyph glyph-name="D" unicode="D" horiz-adv-x="726" 
d="M300 666h-70v-559q0 -42 19 -56.5t65 -14.5h23q103 0 166.5 81t63.5 229q0 90 -25.5 159.5t-87.5 115t-154 45.5zM338 0h-310v30q55 7 69.5 18.5t14.5 52.5v500q0 41 -14.5 52.5t-69.5 18.5v30h294q183 0 277.5 -95t94.5 -239q0 -171 -100.5 -269.5t-255.5 -98.5z" />
    <glyph glyph-name="E" unicode="E" horiz-adv-x="623" 
d="M28 0v30q55 7 69.5 18.5t14.5 52.5v500q0 41 -14.5 52.5t-69.5 18.5v30h534l5 -173h-24q-35 81 -66 109t-86 28h-161v-285h144q32 0 47 21t23 70h31v-219h-31q-8 48 -23 69t-47 21h-144v-239q0 -39 21.5 -53.5t72.5 -14.5h78q54 0 87 31.5t85 121.5h29l-31 -189h-544z
" />
    <glyph glyph-name="F" unicode="F" horiz-adv-x="575" 
d="M230 334v-223q0 -43 24.5 -58.5t97.5 -20.5v-32h-324v30q55 7 69.5 18.5t14.5 52.5v500q0 41 -14.5 52.5t-69.5 18.5v30h517l4 -177h-23q-30 81 -63 111t-89 30h-144v-294h126q31 0 45.5 22t22.5 72h30v-226h-30q-8 50 -22.5 72t-45.5 22h-126z" />
    <glyph glyph-name="G" unicode="G" horiz-adv-x="707" 
d="M503 62v165q0 41 -14 52t-70 18v31h280v-31q-56 -7 -70 -18t-14 -52v-166q-106 -71 -246 -71q-156 0 -247 98t-91 247q0 171 97.5 274t249.5 103q134 0 221 -57v-155h-32q-35 176 -187 176q-110 0 -166 -88t-56 -226q0 -143 57.5 -239t166.5 -96q80 0 121 35z" />
    <glyph glyph-name="H" unicode="H" horiz-adv-x="788" 
d="M230 601v-219h328v219q0 41 -14.5 52.5t-69.5 18.5v30h286v-30q-55 -7 -69.5 -18.5t-14.5 -52.5v-500q0 -41 14.5 -52.5t69.5 -18.5v-30h-286v30q55 7 69.5 18.5t14.5 52.5v240h-328v-240q0 -41 14.5 -52.5t69.5 -18.5v-30h-286v30q55 7 69.5 18.5t14.5 52.5v500
q0 41 -14.5 52.5t-69.5 18.5v30h286v-30q-55 -7 -69.5 -18.5t-14.5 -52.5z" />
    <glyph glyph-name="I" unicode="I" horiz-adv-x="342" 
d="M230 601v-500q0 -41 14.5 -52.5t69.5 -18.5v-30h-286v30q55 7 69.5 18.5t14.5 52.5v500q0 41 -14.5 52.5t-69.5 18.5v30h286v-30q-55 -7 -69.5 -18.5t-14.5 -52.5z" />
    <glyph glyph-name="J" unicode="J" horiz-adv-x="503" 
d="M283 167v434q0 41 -14.5 52.5t-69.5 18.5v30h286v-30q-55 -7 -69.5 -18.5t-14.5 -52.5v-395q0 -108 -56 -162t-159 -54q-89 0 -140.5 34t-51.5 97q0 44 33 70h81q-5 -30 -5 -55q0 -115 89 -115q91 0 91 146z" />
    <glyph glyph-name="K" unicode="K" horiz-adv-x="686" 
d="M345 397l221 -290q36 -47 57.5 -61t62.5 -16v-30h-166q-39 30 -86 93l-191 253l249 261q23 23 23 39q0 13 -14.5 17.5t-62.5 8.5v30h216v-30q-31 -2 -48.5 -12t-43.5 -36zM230 601v-500q0 -41 14.5 -52.5t69.5 -18.5v-30h-286v30q55 7 69.5 18.5t14.5 52.5v500
q0 41 -14.5 52.5t-69.5 18.5v30h286v-30q-55 -7 -69.5 -18.5t-14.5 -52.5z" />
    <glyph glyph-name="L" unicode="L" horiz-adv-x="596" 
d="M230 601v-497q0 -39 21 -53.5t72 -14.5h52q56 0 90 36t86 133h29l-33 -205h-519v30q55 7 69.5 18.5t14.5 52.5v500q0 41 -14.5 52.5t-69.5 18.5v30h286v-30q-55 -7 -69.5 -18.5t-14.5 -52.5z" />
    <glyph glyph-name="M" unicode="M" horiz-adv-x="911" 
d="M693 119l-52 434l-199 -553h-35l-213 553l-50 -434q-2 -16 -2 -25q0 -35 19 -47t74 -17v-30h-220v30q43 3 60 15t21 46l62 508q0 39 -18 54.5t-67 18.5v30h196q2 -23 15 -59l180 -467l165 467q13 36 15 59h194v-30q-48 -3 -66 -18.5t-18 -54.5l61 -508q4 -35 21 -46.5
t60 -14.5v-30h-295v30q55 5 74 17t19 47q0 2 -0.5 11t-0.5 14z" />
    <glyph glyph-name="N" unicode="N" horiz-adv-x="742" 
d="M595 199v401q0 41 -17.5 53.5t-81.5 18.5v30h229v-30q-56 -7 -70.5 -19t-14.5 -53v-603h-36l-445 568v-463q0 -41 17.5 -53.5t81.5 -18.5v-30h-229v30q56 7 70.5 19t14.5 53v508q-27 35 -42.5 47.5t-43.5 14.5v30h177z" />
    <glyph glyph-name="O" unicode="O" horiz-adv-x="708" 
d="M358 27q90 0 140 92.5t50 228.5q0 85 -20 156.5t-66.5 121t-112.5 49.5q-91 0 -141 -92.5t-50 -228.5q0 -85 20.5 -157t67 -121t112.5 -49zM349 -10q-147 0 -232.5 101.5t-85.5 245.5q0 169 93 272t234 103q147 0 232.5 -101.5t85.5 -245.5q0 -169 -93 -272t-234 -103z
" />
    <glyph glyph-name="P" unicode="P" horiz-adv-x="601" 
d="M230 283v-172q0 -43 24.5 -58.5t97.5 -20.5v-32h-324v30q55 7 69.5 18.5t14.5 52.5v500q0 41 -14.5 52.5t-69.5 18.5v30h283q131 0 200 -59t69 -148q0 -97 -68.5 -154.5t-199.5 -57.5h-82zM230 666v-345h56q170 0 170 171q0 77 -43 125.5t-127 48.5h-56z" />
    <glyph glyph-name="Q" unicode="Q" horiz-adv-x="708" 
d="M382 -94l-58 85q-136 9 -214.5 108.5t-78.5 237.5q0 169 93 272t234 103q147 0 232.5 -101.5t85.5 -245.5t-69 -241.5t-181 -124.5l62 -61q72 -74 139 -79v-12q-54 -28 -98 -28q-88 0 -147 87zM358 27q90 0 140 92.5t50 228.5q0 85 -20 156.5t-66.5 121t-112.5 49.5
q-91 0 -141 -92.5t-50 -228.5q0 -85 20.5 -157t67 -121t112.5 -49z" />
    <glyph glyph-name="R" unicode="R" horiz-adv-x="694" 
d="M286 665h-56v-324h59q164 0 164 168q0 70 -42.5 113t-124.5 43zM230 304v-203q0 -41 14.5 -52.5t69.5 -18.5v-30h-286v30q55 7 69.5 18.5t14.5 52.5v500q0 41 -14.5 52.5t-69.5 18.5v30h290q124 0 191 -52.5t67 -140.5q0 -77 -52 -125t-119 -62l159 -208q35 -47 62.5 -65
t67.5 -19v-30h-168q-33 23 -83 93l-152 211h-61z" />
    <glyph glyph-name="S" unicode="S" horiz-adv-x="533" 
d="M253 -10q-67 0 -124 18t-91 47l-7 171h35q18 -96 65.5 -148t121.5 -52q65 0 103 34t38 89q0 57 -35.5 89t-134.5 71q-93 37 -139.5 82t-46.5 126q0 85 60 140t160 55q123 0 204 -58v-149h-33q-12 83 -55.5 127t-115.5 44q-55 0 -87.5 -31.5t-32.5 -81.5q0 -54 30.5 -83.5
t115.5 -62.5q111 -44 161 -92t50 -131q0 -95 -69 -149.5t-173 -54.5z" />
    <glyph glyph-name="T" unicode="T" horiz-adv-x="656" 
d="M29 702h598l15 -219h-26q-48 116 -77 151t-88 35h-64v-571q0 -39 18 -49.5t76 -18.5v-30h-306v30q32 4 45 6.5t27.5 9.5t18.5 19t4 33v571h-65q-59 0 -88 -35t-76 -151h-27z" />
    <glyph glyph-name="U" unicode="U" horiz-adv-x="721" 
d="M212 601v-351q0 -95 43.5 -148t124.5 -53q200 0 200 208v343q0 41 -17 53.5t-80 18.5v30h227v-30q-55 -7 -70 -19t-15 -53v-361q0 -121 -72 -185t-185 -64q-129 0 -201 63t-72 189v359q0 41 -14.5 52.5t-70.5 18.5v30h287v-30q-56 -7 -70.5 -18.5t-14.5 -52.5z" />
    <glyph glyph-name="V" unicode="V" horiz-adv-x="697" 
d="M401 156l168 432q10 25 10 40q0 22 -19 32t-68 12v30h200v-30q-25 -4 -38 -11.5t-21 -25.5l-257 -643h-28l-284 643q-8 19 -21 26t-38 11v30h280v-30q-50 -2 -68 -11.5t-18 -32.5q0 -16 10 -40z" />
    <glyph glyph-name="W" unicode="W" horiz-adv-x="939" 
d="M619 -8l-139 416l-149 -416h-35l-232 643q-10 28 -59 37v30h272v-30q-46 -2 -64 -11t-18 -31q0 -4 10 -44l149 -421l108 299l-57 171q-4 13 -13 20.5t-18 10.5t-26 6v30h265v-30q-48 -1 -66.5 -10.5t-18.5 -32.5q0 -13 10 -45l135 -414l140 414q11 29 11 43q0 23 -19 33
t-67 12v30h196v-30q-18 -3 -26 -5.5t-18 -10.5t-14 -21l-223 -643h-34z" />
    <glyph glyph-name="X" unicode="X" horiz-adv-x="692" 
d="M448 109l-133 201l-147 -198q-21 -31 -21 -47q0 -32 82 -35v-30h-224v30q30 2 48 11.5t38 35.5l200 269l-184 279q-29 45 -84 47v30h297v-30q-43 0 -61 -5.5t-18 -21.5t25 -55l109 -166l122 166q23 32 23 50q0 17 -19 24t-60 8v30h219v-30q-56 -3 -88 -47l-175 -235
l206 -311q31 -48 84 -49v-30h-299v30q41 1 60.5 7.5t19.5 24.5q0 17 -20 47z" />
    <glyph glyph-name="Y" unicode="Y" horiz-adv-x="641" 
d="M377 278v-180q0 -39 18 -49.5t76 -18.5v-30h-301v30q26 3 36.5 5t25.5 6.5t20 11t9 17.5t4 28v179l-201 358q-17 30 -59 37v30h276v-30q-48 -1 -66 -9t-18 -28q0 -17 19 -50l146 -256l141 254q18 36 18 53q0 19 -18 26.5t-66 9.5v30h199v-30q-42 -8 -59 -37z" />
    <glyph glyph-name="Z" unicode="Z" horiz-adv-x="593" 
d="M165 36h198q59 0 90.5 32.5t90.5 137.5h29l-33 -206h-520v20l393 646h-194q-31 0 -50.5 -6.5t-37 -29.5t-28 -45t-33.5 -75h-27l6 192h507v-21z" />
    <glyph glyph-name="bracketleft" unicode="[" horiz-adv-x="318" 
d="M164 681v-733q0 -36 22 -46t89 -14v-29h-190v911h190v-29q-67 -4 -89 -14t-22 -46z" />
    <glyph glyph-name="backslash" unicode="\" horiz-adv-x="374" 
d="M318 -141l-294 911h48l294 -911h-48z" />
    <glyph glyph-name="bracketright" unicode="]" horiz-adv-x="318" 
d="M153 -52v733q0 36 -22 46t-89 14v29h191v-911h-191v29q67 4 89 14t22 46z" />
    <glyph glyph-name="asciicircum" unicode="^" horiz-adv-x="464" 
d="M260 770l165 -290h-52l-140 251l-142 -251h-53l165 290h57z" />
    <glyph glyph-name="underscore" unicode="_" horiz-adv-x="396" 
d="M376 -113h-356v47h356v-47z" />
    <glyph glyph-name="grave" unicode="`" 
d="M159 762h119l57 -168h-25l-151 162v6z" />
    <glyph glyph-name="a" unicode="a" horiz-adv-x="506" 
d="M218 58q41 0 96 44v188l-105 -43q-37 -14 -55.5 -36.5t-18.5 -61.5q0 -42 21 -66.5t62 -24.5zM426 376v-265q0 -32 8 -46.5t28 -14.5q19 0 43 11l6 -18q-39 -53 -104 -53q-78 0 -91 89q-73 -88 -158 -88q-60 0 -95.5 34.5t-35.5 92.5t36 91t104 58l147 54v76
q0 109 -83 109q-38 0 -56.5 -23.5t-18.5 -63.5q0 -22 8 -56l-66 -9q-42 13 -42 58q0 57 52.5 89.5t134.5 32.5q183 0 183 -158z" />
    <glyph glyph-name="b" unicode="b" horiz-adv-x="564" 
d="M63 685l-63 34v15l158 49h17v-340q63 91 168 91q93 0 145.5 -64.5t52.5 -176.5q0 -139 -75 -221t-187 -82q-134 0 -216 71v624zM279 22q68 0 108.5 64.5t40.5 162.5q0 95 -37 155.5t-111 60.5q-62 0 -105 -46v-276q0 -121 104 -121z" />
    <glyph glyph-name="c" unicode="c" horiz-adv-x="455" 
d="M122 294q0 -100 44 -160.5t120 -60.5q91 0 143 79l15 -7q-48 -155 -196 -155q-100 0 -162.5 70t-62.5 184q0 127 68.5 208.5t181.5 81.5q72 0 114.5 -29t42.5 -81q0 -45 -35 -64h-66q4 26 4 45q0 95 -78 95q-61 0 -97 -58.5t-36 -147.5z" />
    <glyph glyph-name="d" unicode="d" horiz-adv-x="578" 
d="M279 499q-68 0 -108 -59.5t-40 -158.5q0 -95 40 -155.5t112 -60.5q63 0 102 41v256q0 64 -29 100.5t-77 36.5zM385 685l-63 34v15l159 49h16v-682q0 -27 7 -35.5t37 -11.5l26 -2v-26l-166 -36h-20l4 93q-68 -93 -161 -93q-91 0 -146 68.5t-55 178.5q0 136 70.5 216
t178.5 80q73 0 113 -37v189z" />
    <glyph glyph-name="e" unicode="e" horiz-adv-x="477" 
d="M259 534q93 0 144 -56.5t51 -146.5v-21h-329q-4 -111 45 -175.5t127 -64.5q93 0 150 85l13 -7q-19 -72 -72 -115t-132 -43q-106 0 -169 72.5t-63 185.5q0 124 67.5 205t167.5 81zM250 500q-52 0 -84 -44t-38 -114h222q0 158 -100 158z" />
    <glyph glyph-name="f" unicode="f" horiz-adv-x="329" 
d="M199 483v-403q0 -29 18 -38.5t69 -12.5v-29h-265v29q39 2 52.5 11t13.5 36v407h-73v20l73 27v56q0 95 52 146t139 51q116 0 116 -78q0 -35 -31 -53h-61q3 17 3 37q0 65 -45 65q-61 0 -61 -100v-130h126v-41h-126z" />
    <glyph glyph-name="g" unicode="g" horiz-adv-x="509" 
d="M238 190q-52 0 -94 16q-38 -40 -38 -67q0 -37 39 -37h198q79 0 122.5 -33t43.5 -97q0 -90 -81 -142t-203 -52q-105 0 -165 33t-60 93q0 67 95 103q-59 22 -59 86q0 61 89 121q-90 42 -90 141q0 82 57.5 130.5t147.5 48.5q42 0 86 -14l164 4v-52h-39l-75 4
q27 -18 45.5 -49.5t18.5 -67.5q0 -77 -55.5 -123t-146.5 -46zM336 -1h-228q-25 -26 -25 -71q0 -54 40.5 -85t110.5 -31q83 0 138 30t55 88q0 69 -91 69zM244 219q43 0 65.5 37t22.5 97q0 65 -25 108.5t-72 43.5q-44 0 -66.5 -37.5t-22.5 -96.5q0 -66 25.5 -109t72.5 -43z
" />
    <glyph glyph-name="h" unicode="h" horiz-adv-x="595" 
d="M84 76v609l-63 34v15l159 49h16v-345q85 96 183 96q139 0 139 -164v-294q0 -27 13.5 -36t52.5 -11v-29h-244v29q39 2 52.5 11t13.5 36v292q0 97 -84 97q-61 0 -126 -52v-337q0 -27 13 -36t52 -11v-29h-243v29q39 2 52.5 11t13.5 36z" />
    <glyph glyph-name="i" unicode="i" horiz-adv-x="280" 
d="M199 534v-458q0 -27 13.5 -36t52.5 -11v-29h-244v29q39 2 52.5 11t13.5 36v357l-63 35v14l159 52h16zM140 605q-30 0 -50.5 20.5t-20.5 49.5q0 30 20.5 50.5t50.5 20.5t51 -21t21 -50t-21 -49.5t-51 -20.5z" />
    <glyph glyph-name="j" unicode="j" horiz-adv-x="257" 
d="M75 433l-63 35v14l159 52h16v-445q0 -69 -7.5 -103.5t-28.5 -68.5q-38 -61 -134 -138l-16 13l41 71q15 26 22.5 58.5t9 59t1.5 74.5v378zM127 605q-30 0 -50.5 20.5t-20.5 49.5q0 30 20.5 50.5t50.5 20.5q31 0 51.5 -20.5t20.5 -50.5q0 -29 -20.5 -49.5t-51.5 -20.5z" />
    <glyph glyph-name="k" unicode="k" horiz-adv-x="556" 
d="M208 285l159 145q27 24 27 39q0 13 -13 17.5t-53 8.5v29h205v-29q-51 -11 -80 -37l-144 -132l247 -305v-21h-122zM85 76v609l-63 34v15l158 49h17v-707q0 -27 13.5 -36t52.5 -11v-29h-244v29q39 2 52.5 11t13.5 36z" />
    <glyph glyph-name="l" unicode="l" horiz-adv-x="278" 
d="M197 783v-707q0 -27 13.5 -36t52.5 -11v-29h-244v29q39 2 52.5 11t13.5 36v609l-63 34v15l158 49h17z" />
    <glyph glyph-name="m" unicode="m" horiz-adv-x="893" 
d="M704 76v292q0 50 -18.5 73.5t-59.5 23.5q-53 0 -118 -52v-337q0 -27 12.5 -36t51.5 -11v-29h-241v29q39 2 52 11t13 36v292q0 50 -18.5 73.5t-60.5 23.5q-53 0 -118 -52v-337q0 -27 13 -36t52 -11v-29h-243v29q39 2 52.5 11t13.5 36v357l-63 35v14l162 52h17l-4 -96
q40 46 80.5 71t96.5 25q106 0 126 -99q86 99 182 99q132 0 132 -162v-296q0 -27 13.5 -36t52.5 -11v-29h-242v29q39 2 51.5 11t12.5 36z" />
    <glyph glyph-name="n" unicode="n" horiz-adv-x="598" 
d="M409 76v292q0 97 -84 97q-61 0 -126 -52v-337q0 -27 13.5 -36t51.5 -11v-29h-243v29q39 2 52.5 11t13.5 36v357l-63 35v14l162 52h17l-4 -96q85 96 183 96q139 0 139 -161v-297q0 -27 13.5 -36t52.5 -11v-29h-244v29q39 2 52.5 11t13.5 36z" />
    <glyph glyph-name="o" unicode="o" horiz-adv-x="537" 
d="M271 23q60 0 92.5 60t32.5 162q0 112 -33 184t-97 72q-60 0 -92 -60t-32 -162q0 -111 33 -183.5t96 -72.5zM266 -10q-109 0 -176 71.5t-67 188.5q0 126 70.5 205t177.5 79q109 0 176 -71.5t67 -187.5q0 -127 -70.5 -206t-177.5 -79z" />
    <glyph glyph-name="p" unicode="p" horiz-adv-x="579" 
d="M294 23q68 0 108.5 64t40.5 162q0 95 -37 155.5t-111 60.5q-62 0 -105 -46v-275q0 -121 104 -121zM78 -136v569l-63 35v14l161 52h18l-4 -91q63 91 168 91q93 0 145.5 -64.5t52.5 -176.5q0 -139 -74 -221t-185 -82q-69 0 -107 32v-155q0 -29 16.5 -37.5t69.5 -12.5v-29
h-264v29q39 2 52.5 11t13.5 36z" />
    <glyph glyph-name="q" unicode="q" horiz-adv-x="563" 
d="M279 502q-68 0 -108 -60t-40 -159q0 -95 40 -156.5t112 -61.5q63 0 102 41v259q0 63 -29.5 100t-76.5 37zM385 -133v216q-68 -93 -161 -93q-91 0 -146 68.5t-55 178.5q0 136 70.5 216.5t180.5 80.5q98 0 152 -61l54 61h23l-6 -108v-562q0 -27 13.5 -36t52.5 -11v-29h-264
v29q53 4 69.5 12.5t16.5 37.5z" />
    <glyph glyph-name="r" unicode="r" horiz-adv-x="385" 
d="M199 364v-284q0 -29 18 -38.5t69 -12.5v-29h-265v29q39 2 52.5 11t13.5 36v357l-63 35v14l162 52h17l-4 -144q42 84 68.5 114t67.5 30q27 0 41 -16v-90h-17q-54 0 -88.5 -11.5t-71.5 -52.5z" />
    <glyph glyph-name="s" unicode="s" horiz-adv-x="442" 
d="M216 -10q-108 0 -174 49l-6 138h32q19 -71 57 -113.5t93 -42.5q45 0 73 22.5t28 65.5q0 40 -27 62.5t-95 48.5q-82 30 -118 66t-36 99q0 69 47.5 109t126.5 40q89 0 157 -42v-121h-29q-15 60 -47.5 96t-83.5 36q-40 0 -62.5 -21.5t-22.5 -56.5q0 -37 25 -59t90 -46
q84 -30 123.5 -67.5t39.5 -101.5q0 -75 -52 -118t-139 -43z" />
    <glyph glyph-name="t" unicode="t" horiz-adv-x="342" 
d="M177 651v-127h137v-41h-137v-331q0 -50 19 -73t58 -23t77 28l11 -15q-53 -79 -142 -79q-61 0 -97.5 36t-36.5 114v343h-65v18q90 45 152 150h24z" />
    <glyph glyph-name="u" unicode="u" horiz-adv-x="574" 
d="M493 423v-322q0 -27 7 -35.5t37 -11.5l26 -2v-26l-165 -36h-20l4 95q-43 -45 -83 -70t-90 -25q-140 0 -140 159v269q0 27 -10 38t-41 16l-16 2v27l167 32h16l-5 -114v-252q0 -107 84 -107q52 0 118 48v310q0 27 -9.5 38t-41.5 16l-15 2v27l165 32h16z" />
    <glyph glyph-name="v" unicode="v" horiz-adv-x="545" 
d="M540 524v-29q-26 -6 -35 -13t-16 -24l-193 -467h-29l-211 467q-7 17 -16 24t-35 13v29h245v-29q-41 -5 -55 -11t-14 -22q0 -10 6 -28l127 -304l121 305q7 18 7 27q0 16 -13.5 21.5t-56.5 11.5v29h168z" />
    <glyph glyph-name="w" unicode="w" horiz-adv-x="803" 
d="M581 140l113 295q5 11 5 25q0 17 -15 24t-51 11v29h165v-29q-26 -7 -35.5 -14t-15.5 -23l-185 -467h-33l-120 332l-130 -332h-32l-191 467q-7 17 -16 24t-35 13v29h238v-29q-35 -4 -49 -10.5t-14 -23.5q0 -13 5 -26l113 -299l92 241l-30 81q-5 16 -14.5 23.5t-34.5 13.5
v29h229v-29q-38 -4 -52.5 -10.5t-14.5 -24.5q0 -8 5 -25z" />
    <glyph glyph-name="x" unicode="x" horiz-adv-x="550" 
d="M347 87l-102 144l-109 -144q-13 -17 -13 -30q0 -23 61 -28v-29h-179v29q49 12 68 38l149 196l-137 195q-20 29 -60 37v29h237v-29q-55 -3 -55 -24q0 -14 15 -34l80 -115l86 115q16 20 16 33q0 20 -55 25v29h171v-29q-49 -9 -69 -38l-127 -165l158 -225q21 -31 63 -38v-29
h-241v29q22 2 33.5 3.5t19 6t7.5 12.5q0 10 -17 36z" />
    <glyph glyph-name="y" unicode="y" horiz-adv-x="542" 
d="M315 114l119 320q6 18 6 28q0 16 -14 22t-55 11v29h166v-29q-26 -6 -35.5 -13.5t-15.5 -23.5l-216 -558q-24 -62 -51.5 -90.5t-72.5 -28.5q-25 0 -46 13t-28 35v39q34 -9 62 -9q43 0 69 16.5t42 60.5l18 48l-207 474q-7 17 -16 24t-35 13v29h244v-29q-41 -5 -55 -11
t-14 -22q0 -10 6 -28z" />
    <glyph glyph-name="z" unicode="z" horiz-adv-x="492" 
d="M30 0v17l297 470h-134q-43 0 -68.5 -31t-52.5 -110h-27l16 210h25l12 -34h359v-20l-291 -467h144q41 0 69.5 33.5t56.5 117.5h27l-18 -186h-415z" />
    <glyph glyph-name="braceleft" unicode="{" horiz-adv-x="347" 
d="M50 309v12q83 17 83 100v221q0 59 46.5 93.5t126.5 34.5v-23q-44 -5 -67 -27.5t-23 -70.5v-220q0 -50 -25 -74.5t-80 -39.5q55 -15 80 -39.5t25 -74.5v-220q0 -48 23 -70.5t67 -27.5v-23q-80 0 -126.5 34.5t-46.5 93.5v221q0 83 -83 100z" />
    <glyph glyph-name="bar" unicode="|" horiz-adv-x="214" 
d="M130 770v-911h-46v911h46z" />
    <glyph glyph-name="braceright" unicode="}" horiz-adv-x="349" 
d="M299 321v-12q-83 -17 -83 -100v-221q0 -59 -46.5 -93.5t-126.5 -34.5v23q44 5 67 27.5t23 70.5v220q0 50 25 74.5t80 39.5q-55 15 -80 39.5t-25 74.5v220q0 48 -23 70.5t-67 27.5v23q80 0 126.5 -34.5t46.5 -93.5v-221q0 -83 83 -100z" />
    <glyph glyph-name="asciitilde" unicode="~" horiz-adv-x="461" 
d="M404 372l27 -8q-23 -69 -51 -100.5t-75 -31.5q-32 0 -88 35t-83 35q-25 0 -41.5 -15t-35.5 -49l-27 8q23 69 51 100.5t74 31.5q32 0 88.5 -35t83.5 -35q25 0 41.5 15t35.5 49z" />
    <glyph glyph-name="uni00A0" unicode="&#xa0;" horiz-adv-x="202" 
 />
    <glyph glyph-name="exclamdown" unicode="&#xa1;" horiz-adv-x="251" 
d="M50 524q0 31 22 53t53 22t53 -22t22 -53q0 -32 -22 -54t-53 -22t-53 22.5t-22 53.5zM112 379h26l59 -492h-144z" />
    <glyph glyph-name="cent" unicode="&#xa2;" horiz-adv-x="521" 
d="M184 -110l22 109q-77 21 -123 88t-46 163q0 129 73.5 212.5t194.5 83.5h13l21 103h31l-22 -106q60 -8 95.5 -36.5t35.5 -73.5t-37 -63h-65q4 28 4 46q0 64 -41 86l-86 -420q26 -11 63 -11q99 0 156 85l14 -8q-23 -78 -77 -118t-133 -40q-22 0 -41 3l-21 -103h-31z
M138 300q0 -147 88 -204l85 415q-14 2 -24 2q-68 0 -108.5 -60.5t-40.5 -152.5z" />
    <glyph glyph-name="sterling" unicode="&#xa3;" horiz-adv-x="636" 
d="M101 352v34h100l9 73q29 253 240 253q69 0 111 -27t42 -77q0 -23 -12.5 -41.5t-29.5 -25.5h-70q8 34 8 63q0 81 -58 81q-76 0 -104 -177l-19 -122h164v-34h-170l-16 -106q-9 -66 -25 -109q97 -52 203 -52q103 0 103 85q0 15 -3 30l13 2q32 -35 32 -86q0 -61 -38 -93.5
t-105 -32.5q-65 0 -126.5 27t-103.5 65q-43 -92 -139 -92q-45 0 -71 26t-26 66q0 45 30.5 71t72.5 26q36 0 63 -10l21 183h-96zM97 30q27 0 47 23t27 71q-38 19 -65 19t-43.5 -15.5t-16.5 -44.5q0 -25 14 -39t37 -14z" />
    <glyph glyph-name="currency" unicode="&#xa4;" horiz-adv-x="582" 
d="M67 544l27 27l72 -74q55 45 125 45q71 0 124 -45l73 74l27 -27l-74 -74q42 -55 42 -125q0 -72 -42 -125l74 -74l-27 -27l-73 74q-51 -45 -124 -45q-72 0 -125 45l-72 -74l-27 27l74 74q-42 51 -42 125q0 72 42 125zM140 345q0 -69 43 -114.5t108 -45.5t108 45.5t43 114.5
q0 70 -43 115.5t-108 45.5t-108 -45.5t-43 -115.5z" />
    <glyph glyph-name="yen" unicode="&#xa5;" horiz-adv-x="640" 
d="M378 281v-49h168v-34h-168v-100q0 -39 18 -49.5t76 -18.5v-30h-304v30q32 4 45 6.5t27.5 9.5t18.5 19t4 33v100h-169v34h169v48l-19 34h-150v35h130l-160 286q-17 30 -59 37v30h279v-30q-49 -1 -66.5 -9.5t-17.5 -28.5q0 -16 19 -49l140 -255l141 253q17 39 17 52
q0 20 -18 27.5t-66 9.5v30h202v-30q-42 -8 -59 -37l-160 -286h130v-35h-150z" />
    <glyph glyph-name="brokenbar" unicode="&#xa6;" horiz-adv-x="214" 
d="M130 770v-376h-46v376h46zM130 235v-376h-46v376h46z" />
    <glyph glyph-name="section" unicode="&#xa7;" horiz-adv-x="521" 
d="M151 630q-63 -60 -63 -157q0 -74 30 -142t87 -146q9 -12 49.5 -64t60 -81t38.5 -75.5t17 -84.5q63 60 63 157q0 74 -30 142t-87 146q-9 12 -49.5 64t-60 81t-38.5 75.5t-17 84.5zM235 -202q-74 0 -113.5 27.5t-39.5 70.5q0 37 40 53h66v-22q0 -101 76 -101q36 0 54.5 21
t18.5 53q0 26 -17 61.5t-35 61t-54.5 73t-52.5 69.5q-60 82 -92 155t-32 153q0 105 68 172t164 67q74 0 113.5 -27.5t39.5 -71.5q0 -36 -39 -52h-67v22q0 101 -76 101q-36 0 -54 -21t-18 -53q0 -26 17 -62t34 -60.5t55 -74t52 -68.5q60 -82 92 -155t32 -153q0 -105 -68 -172
t-164 -67z" />
    <glyph glyph-name="dieresis" unicode="&#xa8;" 
d="M91 674q0 28 19 47.5t47 19.5t48 -19.5t20 -47.5t-20 -47.5t-48 -19.5t-47 19.5t-19 47.5zM277 674q0 28 19.5 47.5t47.5 19.5t47.5 -19.5t19.5 -47.5t-19.5 -47.5t-47.5 -19.5t-47.5 19.5t-19.5 47.5z" />
    <glyph glyph-name="copyright" unicode="&#xa9;" horiz-adv-x="792" 
d="M63 351q0 -142 94.5 -239.5t238.5 -97.5t238.5 97.5t94.5 239.5t-94.5 239.5t-238.5 97.5t-238.5 -97.5t-94.5 -239.5zM38 351q0 151 101.5 256t256.5 105t256.5 -105t101.5 -256t-101.5 -256t-256.5 -105t-256.5 105t-101.5 256zM413 172q46 0 71.5 28t44.5 87h24
l-9 -109q-68 -36 -134 -36q-93 0 -149.5 56.5t-56.5 145.5q0 100 60.5 160t148.5 60q79 0 129 -41v-97h-23q-24 108 -104 108q-58 0 -90.5 -51t-32.5 -123q0 -85 32.5 -136.5t88.5 -51.5z" />
    <glyph glyph-name="ordfeminine" unicode="&#xaa;" horiz-adv-x="364" 
d="M152 408q29 0 64 29v112l-62 -25q-48 -18 -48 -64q0 -52 46 -52zM293 605v-163q0 -42 24 -42q12 0 32 8l3 -13q-26 -35 -70 -35q-26 0 -43.5 16t-20.5 43q-47 -59 -104 -59q-38 0 -61 22.5t-23 58.5q0 39 23 60t68 38l95 34v37q0 79 -53 79q-45 0 -45 -52q0 -15 5 -37
l-49 -7q-26 8 -26 39q0 37 34.5 58.5t88.5 21.5q122 0 122 -107z" />
    <glyph glyph-name="guillemotleft" unicode="&#xab;" horiz-adv-x="452" 
d="M32 271v6l190 194h32l-117 -197l117 -197h-32zM198 271v6l190 194h32l-117 -197l117 -197h-32z" />
    <glyph glyph-name="registered" unicode="&#xae;" horiz-adv-x="515" 
d="M252 587h-22v-101h22q52 0 52 52q0 23 -13.5 36t-38.5 13zM152 606h109q45 0 69 -18.5t24 -48.5q0 -26 -17 -43t-41 -22l42 -57q11 -16 20.5 -23t26.5 -7v-16h-62q-20 12 -37 41l-38 56h-18v-57q0 -15 5.5 -19.5t22.5 -4.5v-16h-106v16q17 0 23 4.5t6 19.5v155
q0 15 -5.5 19t-23.5 6v15zM54 484q0 -85 58 -144.5t145 -59.5q88 0 146 59.5t58 144.5q0 86 -58 145.5t-146 59.5q-87 0 -145 -59.5t-58 -145.5zM30 484q0 96 64.5 162t162.5 66q99 0 163.5 -66t64.5 -162q0 -95 -65 -161t-163 -66t-162.5 66t-64.5 161z" />
    <glyph glyph-name="macron" unicode="&#xaf;" 
d="M117 623v58h259v-58h-259z" />
    <glyph glyph-name="degree" unicode="&#xb0;" horiz-adv-x="277" 
d="M60 595q0 -37 21.5 -60t57.5 -23t57 23t21 60t-21 60t-57 23t-57.5 -23t-21.5 -60zM20 595q0 49 34.5 83t84.5 34q49 0 83.5 -34t34.5 -83t-34.5 -83t-83.5 -34q-50 0 -84.5 34t-34.5 83z" />
    <glyph glyph-name="plusminus" unicode="&#xb1;" horiz-adv-x="566" 
d="M256 603h53v-147h194v-53h-194v-147h-53v147h-192v53h192v147zM64 144v53h439v-53h-439z" />
    <glyph glyph-name="twosuperior" unicode="&#xb2;" horiz-adv-x="374" 
d="M125 379h104q33 0 47 9t36 46h16l-13 -127h-285v16l106 101q49 49 68.5 82.5t19.5 71.5q0 35 -19 54t-54 19q-55 0 -97 -48l-14 12q22 41 60 68t89 27q55 0 85.5 -29.5t30.5 -82.5q0 -17 -4 -33t-15 -33t-19.5 -28.5t-30 -30.5t-32 -28.5t-39 -32.5t-40.5 -33z" />
    <glyph glyph-name="threesuperior" unicode="&#xb3;" horiz-adv-x="365" 
d="M200 528q57 -4 91 -34.5t34 -77.5q0 -55 -44 -86.5t-109 -31.5q-64 0 -100 25t-36 61q0 29 26 43h50q-4 -13 -4 -26q0 -79 70 -79q33 0 51.5 22t18.5 62q0 89 -106 89h-14l-4 17q49 16 73.5 36.5t24.5 50.5q0 25 -16 41t-46 16q-54 0 -86 -52l-21 12q19 43 56 69.5
t88 26.5q50 0 76.5 -23.5t26.5 -62.5q0 -38 -29.5 -62t-70.5 -36z" />
    <glyph glyph-name="acute" unicode="&#xb4;" 
d="M217 762h118v-6l-151 -162h-25z" />
    <glyph glyph-name="mu" unicode="&#xb5;" horiz-adv-x="574" 
d="M170 14l13 -188v-13l-114 -10v615q0 27 -10 38t-41 16l-16 2v27l167 32h16l-5 -114v-252q0 -107 84 -107q52 0 118 48v310q0 27 -9.5 38t-41.5 16l-15 2v27l165 32h16l-4 -110v-322q0 -27 7 -35.5t37 -11.5l26 -2v-26l-165 -36h-20l4 95q-79 -95 -158 -95q-39 0 -54 24z
" />
    <glyph glyph-name="paragraph" unicode="&#xb6;" horiz-adv-x="611" 
d="M321 -197v415q-128 0 -197 69.5t-69 176.5q0 106 68.5 172t197.5 66h266v-32q-55 -1 -78.5 -15.5t-23.5 -57.5v-794h-40v865h-84v-865h-40zM321 252v416q-74 -1 -109.5 -60.5t-35.5 -143.5q0 -53 13 -98.5t47.5 -79t84.5 -34.5z" />
    <glyph glyph-name="periodcentered" unicode="&#xb7;" horiz-adv-x="219" 
d="M30 303q0 34 23 56.5t56 22.5q34 0 57 -22.5t23 -56.5t-23 -57t-57 -23q-33 0 -56 23t-23 57z" />
    <glyph glyph-name="cedilla" unicode="&#xb8;" 
d="M160 -223l-6 28q53 0 83.5 14.5t30.5 37.5q0 39 -85 42l44 109h29l-22 -54q102 -2 102 -76q0 -50 -48.5 -75.5t-127.5 -25.5z" />
    <glyph glyph-name="onesuperior" unicode="&#xb9;" horiz-adv-x="327" 
d="M183 712h22v-338q0 -25 15.5 -31.5t65.5 -9.5v-25h-246v25q51 3 66 9.5t15 31.5v242h-81v19l25 5q41 6 66.5 22.5t51.5 49.5z" />
    <glyph glyph-name="ordmasculine" unicode="&#xba;" horiz-adv-x="382" 
d="M193 388q38 0 58 37t20 101q0 69 -20.5 113.5t-61.5 44.5q-38 0 -58 -37.5t-20 -101.5q0 -68 21 -112.5t61 -44.5zM189 360q-71 0 -115.5 46.5t-44.5 121.5q0 83 46.5 133.5t117.5 50.5t115.5 -47t44.5 -121q0 -83 -46.5 -133.5t-117.5 -50.5z" />
    <glyph glyph-name="guillemotright" unicode="&#xbb;" horiz-adv-x="452" 
d="M420 277v-6l-190 -194h-32l117 197l-117 197h32zM254 277v-6l-190 -194h-32l117 197l-117 197h32z" />
    <glyph glyph-name="onequarter" unicode="&#xbc;" horiz-adv-x="764" 
d="M413 136h146v179zM183 712h22v-338q0 -25 15.5 -31.5t65.5 -9.5v-25h-246v25q51 3 66 9.5t15 31.5v242h-81v19l25 5q42 9 68 25t50 47zM148 -10l438 722h42l-439 -722h-41zM705 0h-208v25q40 3 51 9.5t11 31.5v40h-192v21l223 275h52v-266h79v-30h-79v-40
q0 -25 11.5 -31.5t51.5 -9.5v-25z" />
    <glyph glyph-name="onehalf" unicode="&#xbd;" horiz-adv-x="785" 
d="M183 712h22v-338q0 -25 15.5 -31.5t65.5 -9.5v-25h-246v25q51 3 66 9.5t15 31.5v242h-81v19l25 5q41 6 66.5 22.5t51.5 49.5zM148 -10l438 722h42l-439 -722h-41zM537 72h104q33 0 47 9.5t35 45.5h16l-12 -127h-285v16l105 101q49 49 68.5 83t19.5 71q0 35 -18.5 54
t-53.5 19q-54 0 -98 -48l-14 12q53 96 149 96q55 0 85.5 -30t30.5 -83q0 -17 -4 -33t-15.5 -33t-19 -28.5t-29.5 -31t-31.5 -28t-39.5 -33t-40 -32.5z" />
    <glyph glyph-name="threequarters" unicode="&#xbe;" horiz-adv-x="775" 
d="M200 531q59 -3 92 -33.5t33 -79.5q0 -55 -44.5 -87.5t-108.5 -32.5t-100 25t-36 61q0 29 26 43h50q-4 -13 -4 -26q0 -79 70 -79q33 0 51.5 22t18.5 62q0 89 -106 89h-14l-4 17q97 32 97 87q0 25 -15.5 41t-45.5 16q-54 0 -86 -52l-21 12q19 43 56 69.5t88 26.5
q50 0 76.5 -23.5t26.5 -62.5q0 -67 -100 -95zM424 136h146v179zM158 -10l438 722h42l-438 -722h-42zM715 0h-207v25q40 3 51 9.5t11 31.5v40h-192v21l223 275h52v-266h79v-30h-79v-40q0 -25 11 -31.5t51 -9.5v-25z" />
    <glyph glyph-name="questiondown" unicode="&#xbf;" horiz-adv-x="434" 
d="M128 8q0 -48 25.5 -76t71.5 -28t69.5 30t23.5 76q0 3 -0.5 24t-0.5 23h82q25 -19 25 -52q0 -56 -56.5 -92t-140.5 -36q-93 0 -146.5 43t-53.5 125q0 57 35.5 99.5t104.5 90.5q42 30 59.5 56.5t17.5 68.5v27h14q15 -15 28.5 -42.5t13.5 -57.5q0 -74 -82 -138
q-32 -25 -47 -39t-29 -41.5t-14 -60.5zM320 524q0 -31 -22 -53.5t-53 -22.5t-53 22t-22 54q0 31 22 53t53 22t53 -22t22 -53z" />
    <glyph glyph-name="Agrave" unicode="&#xc0;" horiz-adv-x="711" 
d="M505 114l-51 125h-279l-48 -125q-10 -23 -10 -39q0 -23 20 -33t69 -12v-30h-201v30q17 3 26 6t18.5 10.5t14.5 20.5l225 572l-30 70h126l262 -642q7 -18 20.5 -25.5t38.5 -11.5v-30h-279v30q48 2 67.5 11.5t19.5 32.5q0 18 -9 40zM312 590l-122 -314h249zM189 898h123
l53 -149h-26l-150 143v6z" />
    <glyph glyph-name="Aacute" unicode="&#xc1;" horiz-adv-x="711" 
d="M505 114l-51 125h-279l-48 -125q-10 -23 -10 -39q0 -23 20 -33t69 -12v-30h-201v30q17 3 26 6t18.5 10.5t14.5 20.5l225 572l-30 70h126l262 -642q7 -18 20.5 -25.5t38.5 -11.5v-30h-279v30q48 2 67.5 11.5t19.5 32.5q0 18 -9 40zM312 590l-122 -314h249zM356 898h122v-6
l-150 -143h-26z" />
    <glyph glyph-name="Acircumflex" unicode="&#xc2;" horiz-adv-x="711" 
d="M505 114l-51 125h-279l-48 -125q-10 -23 -10 -39q0 -23 20 -33t69 -12v-30h-201v30q17 3 26 6t18.5 10.5t14.5 20.5l225 572l-30 70h126l262 -642q7 -18 20.5 -25.5t38.5 -11.5v-30h-279v30q48 2 67.5 11.5t19.5 32.5q0 18 -9 40zM312 590l-122 -314h249zM379 907
l128 -158h-31l-137 89l-137 -89h-31l128 158h80z" />
    <glyph glyph-name="Atilde" unicode="&#xc3;" horiz-adv-x="711" 
d="M505 114l-51 125h-279l-48 -125q-10 -23 -10 -39q0 -23 20 -33t69 -12v-30h-201v30q17 3 26 6t18.5 10.5t14.5 20.5l225 572l-30 70h126l262 -642q7 -18 20.5 -25.5t38.5 -11.5v-30h-279v30q48 2 67.5 11.5t19.5 32.5q0 18 -9 40zM312 590l-122 -314h249zM403 749
q-29 0 -75 29.5t-67 29.5q-40 0 -72 -56l-22 12q28 67 51.5 93.5t58.5 26.5q29 0 75 -29.5t67 -29.5q40 0 72 57l22 -13q-28 -67 -51.5 -93.5t-58.5 -26.5z" />
    <glyph glyph-name="Adieresis" unicode="&#xc4;" horiz-adv-x="711" 
d="M505 114l-51 125h-279l-48 -125q-10 -23 -10 -39q0 -23 20 -33t69 -12v-30h-201v30q17 3 26 6t18.5 10.5t14.5 20.5l225 572l-30 70h126l262 -642q7 -18 20.5 -25.5t38.5 -11.5v-30h-279v30q48 2 67.5 11.5t19.5 32.5q0 18 -9 40zM312 590l-122 -314h249zM175 822
q0 28 19 47.5t47 19.5t48 -19.5t20 -47.5q0 -27 -20 -47t-48 -20q-27 0 -46.5 20t-19.5 47zM370 822q0 28 19 47.5t47 19.5t47.5 -19.5t19.5 -47.5q0 -27 -19.5 -47t-47.5 -20q-27 0 -46.5 20t-19.5 47z" />
    <glyph glyph-name="Aring" unicode="&#xc5;" horiz-adv-x="711" 
d="M505 114l-51 125h-279l-48 -125q-10 -23 -10 -39q0 -23 20 -33t69 -12v-30h-201v30q17 3 26 6t18.5 10.5t14.5 20.5l225 572l-30 70h126l262 -642q7 -18 20.5 -25.5t38.5 -11.5v-30h-279v30q48 2 67.5 11.5t19.5 32.5q0 18 -9 40zM312 590l-122 -314h249zM240 822
q0 38 25.5 63.5t64.5 25.5t64.5 -25.5t25.5 -63.5t-25.5 -64t-64.5 -26t-64.5 26t-25.5 64zM277 822q0 -25 14 -41t39 -16t39 16t14 41t-14 40.5t-39 15.5t-39 -15.5t-14 -40.5z" />
    <glyph glyph-name="AE" unicode="&#xc6;" horiz-adv-x="1009" 
d="M64 67l368 565q-12 33 -103 40v30h619l5 -173h-25q-35 81 -65.5 109t-85.5 28h-162v-285h145q32 0 47 21t23 70h31v-219h-31q-8 48 -23 69t-47 21h-145v-239q0 -39 21.5 -53.5t72.5 -14.5h79q54 0 87 31.5t85 121.5h29l-31 -189h-545v30q56 7 70.5 18.5t14.5 52.5v146
h-268l-86 -133q-16 -24 -16 -41q0 -42 95 -43v-30h-218v30q21 4 33.5 12t25.5 25zM498 658l-244 -375h244v375z" />
    <glyph glyph-name="Ccedilla" unicode="&#xc7;" horiz-adv-x="641" 
d="M269 -223l-6 28q53 0 83.5 14.5t30.5 37.5q0 39 -85 42l37 94q-138 13 -218 106t-80 236q0 170 96.5 273.5t244.5 103.5q127 0 218 -59l1 -153h-32q-35 175 -186 175q-104 0 -159.5 -88t-55.5 -224q0 -146 59.5 -240.5t164.5 -94.5q76 0 124 48t72 153h35l-14 -182
q-93 -57 -223 -57q-3 0 -9 0.5t-9 0.5l-15 -37q102 -2 102 -76q0 -50 -48.5 -75.5t-127.5 -25.5z" />
    <glyph glyph-name="Egrave" unicode="&#xc8;" horiz-adv-x="623" 
d="M198 898h123l53 -149h-26l-150 143v6zM28 0v30q55 7 69.5 18.5t14.5 52.5v500q0 41 -14.5 52.5t-69.5 18.5v30h534l5 -173h-24q-35 81 -66 109t-86 28h-161v-285h144q32 0 47 21t23 70h31v-219h-31q-8 48 -23 69t-47 21h-144v-239q0 -39 21.5 -53.5t72.5 -14.5h78
q54 0 87 31.5t85 121.5h29l-31 -189h-544z" />
    <glyph glyph-name="Eacute" unicode="&#xc9;" horiz-adv-x="623" 
d="M350 898h122v-6l-150 -143h-26zM28 0v30q55 7 69.5 18.5t14.5 52.5v500q0 41 -14.5 52.5t-69.5 18.5v30h534l5 -173h-24q-35 81 -66 109t-86 28h-161v-285h144q32 0 47 21t23 70h31v-219h-31q-8 48 -23 69t-47 21h-144v-239q0 -39 21.5 -53.5t72.5 -14.5h78q54 0 87 31.5
t85 121.5h29l-31 -189h-544z" />
    <glyph glyph-name="Ecircumflex" unicode="&#xca;" horiz-adv-x="623" 
d="M28 0v30q55 7 69.5 18.5t14.5 52.5v500q0 41 -14.5 52.5t-69.5 18.5v30h534l5 -173h-24q-35 81 -66 109t-86 28h-161v-285h144q32 0 47 21t23 70h31v-219h-31q-8 48 -23 69t-47 21h-144v-239q0 -39 21.5 -53.5t72.5 -14.5h78q54 0 87 31.5t85 121.5h29l-31 -189h-544z
M372 907l128 -158h-31l-137 89l-137 -89h-31l128 158h80z" />
    <glyph glyph-name="Edieresis" unicode="&#xcb;" horiz-adv-x="623" 
d="M168 822q0 28 19 47.5t47 19.5t48 -19.5t20 -47.5q0 -27 -20 -47t-48 -20q-27 0 -46.5 20t-19.5 47zM363 822q0 28 19 47.5t47 19.5t47.5 -19.5t19.5 -47.5q0 -27 -19.5 -47t-47.5 -20q-27 0 -46.5 20t-19.5 47zM28 0v30q55 7 69.5 18.5t14.5 52.5v500q0 41 -14.5 52.5
t-69.5 18.5v30h534l5 -173h-24q-35 81 -66 109t-86 28h-161v-285h144q32 0 47 21t23 70h31v-219h-31q-8 48 -23 69t-47 21h-144v-239q0 -39 21.5 -53.5t72.5 -14.5h78q54 0 87 31.5t85 121.5h29l-31 -189h-544z" />
    <glyph glyph-name="Igrave" unicode="&#xcc;" horiz-adv-x="342" 
d="M230 601v-500q0 -41 14.5 -52.5t69.5 -18.5v-30h-286v30q55 7 69.5 18.5t14.5 52.5v500q0 41 -14.5 52.5t-69.5 18.5v30h286v-30q-55 -7 -69.5 -18.5t-14.5 -52.5zM37 898h123l53 -149h-26l-150 143v6z" />
    <glyph glyph-name="Iacute" unicode="&#xcd;" horiz-adv-x="342" 
d="M230 601v-500q0 -41 14.5 -52.5t69.5 -18.5v-30h-286v30q55 7 69.5 18.5t14.5 52.5v500q0 41 -14.5 52.5t-69.5 18.5v30h286v-30q-55 -7 -69.5 -18.5t-14.5 -52.5zM189 898h122v-6l-150 -143h-26z" />
    <glyph glyph-name="Icircumflex" unicode="&#xce;" horiz-adv-x="342" 
d="M230 601v-500q0 -41 14.5 -52.5t69.5 -18.5v-30h-286v30q55 7 69.5 18.5t14.5 52.5v500q0 41 -14.5 52.5t-69.5 18.5v30h286v-30q-55 -7 -69.5 -18.5t-14.5 -52.5zM207 907l119 -159h-29l-127 89l-126 -89h-29l118 159h74z" />
    <glyph glyph-name="Idieresis" unicode="&#xcf;" horiz-adv-x="342" 
d="M230 601v-500q0 -41 14.5 -52.5t69.5 -18.5v-30h-286v30q55 7 69.5 18.5t14.5 52.5v500q0 41 -14.5 52.5t-69.5 18.5v30h286v-30q-55 -7 -69.5 -18.5t-14.5 -52.5zM7 822q0 28 19 47.5t47 19.5t48 -19.5t20 -47.5q0 -27 -20 -47t-48 -20q-27 0 -46.5 20t-19.5 47z
M202 822q0 28 19 47.5t47 19.5t47.5 -19.5t19.5 -47.5q0 -27 -19.5 -47t-47.5 -20q-27 0 -46.5 20t-19.5 47z" />
    <glyph glyph-name="Eth" unicode="&#xd0;" horiz-adv-x="736" 
d="M38 341v41h84v219q0 41 -14.5 52.5t-69.5 18.5v30h294q183 0 277.5 -95t94.5 -239q0 -171 -100.5 -269.5t-255.5 -98.5h-310v30q55 7 69.5 18.5t14.5 52.5v240h-84zM310 666h-70v-284h139v-41h-139v-234q0 -42 19 -56.5t65 -14.5h23q103 0 166.5 81t63.5 229
q0 90 -25.5 159.5t-87.5 115t-154 45.5z" />
    <glyph glyph-name="Ntilde" unicode="&#xd1;" horiz-adv-x="742" 
d="M454 749q-29 0 -75 29.5t-67 29.5q-40 0 -72 -56l-22 12q28 67 51.5 93.5t58.5 26.5q29 0 75 -29.5t67 -29.5q40 0 72 57l22 -13q-28 -67 -51.5 -93.5t-58.5 -26.5zM595 199v401q0 41 -17.5 53.5t-81.5 18.5v30h229v-30q-56 -7 -70.5 -19t-14.5 -53v-603h-36l-445 568
v-463q0 -41 17.5 -53.5t81.5 -18.5v-30h-229v30q56 7 70.5 19t14.5 53v508q-27 35 -42.5 47.5t-43.5 14.5v30h177z" />
    <glyph glyph-name="Ograve" unicode="&#xd2;" horiz-adv-x="708" 
d="M221 898h123l53 -149h-26l-150 143v6zM358 27q90 0 140 92.5t50 228.5q0 85 -20 156.5t-66.5 121t-112.5 49.5q-91 0 -141 -92.5t-50 -228.5q0 -85 20.5 -157t67 -121t112.5 -49zM349 -10q-147 0 -232.5 101.5t-85.5 245.5q0 169 93 272t234 103q147 0 232.5 -101.5
t85.5 -245.5q0 -169 -93 -272t-234 -103z" />
    <glyph glyph-name="Oacute" unicode="&#xd3;" horiz-adv-x="708" 
d="M373 898h122v-6l-150 -143h-26zM358 27q90 0 140 92.5t50 228.5q0 85 -20 156.5t-66.5 121t-112.5 49.5q-91 0 -141 -92.5t-50 -228.5q0 -85 20.5 -157t67 -121t112.5 -49zM349 -10q-147 0 -232.5 101.5t-85.5 245.5q0 169 93 272t234 103q147 0 232.5 -101.5
t85.5 -245.5q0 -169 -93 -272t-234 -103z" />
    <glyph glyph-name="Ocircumflex" unicode="&#xd4;" horiz-adv-x="708" 
d="M358 27q90 0 140 92.5t50 228.5q0 85 -20 156.5t-66.5 121t-112.5 49.5q-91 0 -141 -92.5t-50 -228.5q0 -85 20.5 -157t67 -121t112.5 -49zM349 -10q-147 0 -232.5 101.5t-85.5 245.5q0 169 93 272t234 103q147 0 232.5 -101.5t85.5 -245.5q0 -169 -93 -272t-234 -103z
M395 907l128 -158h-31l-137 89l-137 -89h-31l128 158h80z" />
    <glyph glyph-name="Otilde" unicode="&#xd5;" horiz-adv-x="708" 
d="M426 749q-29 0 -75 29.5t-67 29.5q-40 0 -72 -56l-22 12q28 67 51.5 93.5t58.5 26.5q29 0 75 -29.5t67 -29.5q40 0 72 57l22 -13q-28 -67 -51.5 -93.5t-58.5 -26.5zM358 27q90 0 140 92.5t50 228.5q0 85 -20 156.5t-66.5 121t-112.5 49.5q-91 0 -141 -92.5t-50 -228.5
q0 -85 20.5 -157t67 -121t112.5 -49zM349 -10q-147 0 -232.5 101.5t-85.5 245.5q0 169 93 272t234 103q147 0 232.5 -101.5t85.5 -245.5q0 -169 -93 -272t-234 -103z" />
    <glyph glyph-name="Odieresis" unicode="&#xd6;" horiz-adv-x="708" 
d="M191 822q0 28 19 47.5t47 19.5t48 -19.5t20 -47.5q0 -27 -20 -47t-48 -20q-27 0 -46.5 20t-19.5 47zM386 822q0 28 19 47.5t47 19.5t47.5 -19.5t19.5 -47.5q0 -27 -19.5 -47t-47.5 -20q-27 0 -46.5 20t-19.5 47zM358 27q90 0 140 92.5t50 228.5q0 85 -20 156.5t-66.5 121
t-112.5 49.5q-91 0 -141 -92.5t-50 -228.5q0 -85 20.5 -157t67 -121t112.5 -49zM349 -10q-147 0 -232.5 101.5t-85.5 245.5q0 169 93 272t234 103q147 0 232.5 -101.5t85.5 -245.5q0 -169 -93 -272t-234 -103z" />
    <glyph glyph-name="multiply" unicode="&#xd7;" horiz-adv-x="490" 
d="M208 366l-142 141l37 38l142 -143l142 143l37 -38l-142 -141l142 -142l-37 -37l-142 143l-142 -143l-37 37z" />
    <glyph glyph-name="Oslash" unicode="&#xd8;" horiz-adv-x="708" 
d="M349 -10q-101 0 -176 51l-64 -95l-29 20l65 96q-55 48 -84.5 120.5t-29.5 154.5q0 169 93 272t234 103q106 0 185 -58l60 89l29 -20l-62 -92q51 -48 78.5 -118t27.5 -148q0 -169 -93 -272t-234 -103zM158 354q0 -123 41 -211l295 439q-53 93 -145 93q-91 0 -141 -92.5
t-50 -228.5zM358 27q90 0 140 92.5t50 228.5q0 112 -36 197l-293 -436q52 -82 139 -82z" />
    <glyph glyph-name="Ugrave" unicode="&#xd9;" horiz-adv-x="721" 
d="M252 898h123l53 -149h-26l-150 143v6zM212 601v-351q0 -95 43.5 -148t124.5 -53q200 0 200 208v343q0 41 -17 53.5t-80 18.5v30h227v-30q-55 -7 -70 -19t-15 -53v-361q0 -121 -72 -185t-185 -64q-129 0 -201 63t-72 189v359q0 41 -14.5 52.5t-70.5 18.5v30h287v-30
q-56 -7 -70.5 -18.5t-14.5 -52.5z" />
    <glyph glyph-name="Uacute" unicode="&#xda;" horiz-adv-x="721" 
d="M404 898h122v-6l-150 -143h-26zM212 601v-351q0 -95 43.5 -148t124.5 -53q200 0 200 208v343q0 41 -17 53.5t-80 18.5v30h227v-30q-55 -7 -70 -19t-15 -53v-361q0 -121 -72 -185t-185 -64q-129 0 -201 63t-72 189v359q0 41 -14.5 52.5t-70.5 18.5v30h287v-30
q-56 -7 -70.5 -18.5t-14.5 -52.5z" />
    <glyph glyph-name="Ucircumflex" unicode="&#xdb;" horiz-adv-x="721" 
d="M212 601v-351q0 -95 43.5 -148t124.5 -53q200 0 200 208v343q0 41 -17 53.5t-80 18.5v30h227v-30q-55 -7 -70 -19t-15 -53v-361q0 -121 -72 -185t-185 -64q-129 0 -201 63t-72 189v359q0 41 -14.5 52.5t-70.5 18.5v30h287v-30q-56 -7 -70.5 -18.5t-14.5 -52.5zM426 907
l128 -158h-31l-137 89l-137 -89h-31l128 158h80z" />
    <glyph glyph-name="Udieresis" unicode="&#xdc;" horiz-adv-x="721" 
d="M222 822q0 28 19 47.5t47 19.5t48 -19.5t20 -47.5q0 -27 -20 -47t-48 -20q-27 0 -46.5 20t-19.5 47zM417 822q0 28 19 47.5t47 19.5t47.5 -19.5t19.5 -47.5q0 -27 -19.5 -47t-47.5 -20q-27 0 -46.5 20t-19.5 47zM212 601v-351q0 -95 43.5 -148t124.5 -53q200 0 200 208
v343q0 41 -17 53.5t-80 18.5v30h227v-30q-55 -7 -70 -19t-15 -53v-361q0 -121 -72 -185t-185 -64q-129 0 -201 63t-72 189v359q0 41 -14.5 52.5t-70.5 18.5v30h287v-30q-56 -7 -70.5 -18.5t-14.5 -52.5z" />
    <glyph glyph-name="Yacute" unicode="&#xdd;" horiz-adv-x="641" 
d="M377 278v-180q0 -39 18 -49.5t76 -18.5v-30h-301v30q26 3 36.5 5t25.5 6.5t20 11t9 17.5t4 28v179l-201 358q-17 30 -59 37v30h276v-30q-48 -1 -66 -9t-18 -28q0 -17 19 -50l146 -256l141 254q18 36 18 53q0 19 -18 26.5t-66 9.5v30h199v-30q-42 -8 -59 -37zM359 898h122
v-6l-150 -143h-26z" />
    <glyph glyph-name="Thorn" unicode="&#xde;" horiz-adv-x="601" 
d="M230 601v-35h81q131 0 200 -58.5t69 -147.5q0 -98 -68.5 -155.5t-199.5 -57.5h-82v-36q0 -43 24.5 -58.5t97.5 -20.5v-32h-324v30q55 7 69.5 18.5t14.5 52.5v500q0 41 -14.5 52.5t-69.5 18.5v30h286v-30q-55 -7 -69.5 -18.5t-14.5 -52.5zM230 530v-345h56q170 0 170 172
q0 76 -43 124.5t-127 48.5h-56z" />
    <glyph glyph-name="germandbls" unicode="&#xdf;" horiz-adv-x="637" 
d="M315 783q86 0 139.5 -42.5t53.5 -105.5q0 -33 -14.5 -60.5t-35.5 -46t-42 -34.5t-35.5 -33.5t-14.5 -35.5q0 -7 2.5 -14t9 -13.5t13 -12t18.5 -13t21 -12.5t26 -15t28 -16q65 -39 95.5 -75.5t30.5 -98.5q0 -72 -53.5 -118.5t-128.5 -46.5q-97 0 -156 54l-6 132h33
q15 -70 48 -112t83 -42q44 0 68 24t24 66q0 44 -26.5 70t-92.5 64q-56 32 -80 60t-24 70q0 30 19.5 60.5t42.5 53.5t42.5 62t19.5 83q0 55 -26.5 87.5t-79.5 32.5q-58 0 -88 -45t-30 -129v-581h-178v29q39 2 52.5 11t13.5 36v407h-73v20l74 27v27q2 111 66.5 168.5
t160.5 57.5z" />
    <glyph glyph-name="agrave" unicode="&#xe0;" horiz-adv-x="506" 
d="M218 58q41 0 96 44v188l-105 -43q-37 -14 -55.5 -36.5t-18.5 -61.5q0 -42 21 -66.5t62 -24.5zM426 376v-265q0 -32 8 -46.5t28 -14.5q19 0 43 11l6 -18q-39 -53 -104 -53q-78 0 -91 89q-73 -88 -158 -88q-60 0 -95.5 34.5t-35.5 92.5t36 91t104 58l147 54v76
q0 109 -83 109q-38 0 -56.5 -23.5t-18.5 -63.5q0 -22 8 -56l-66 -9q-42 13 -42 58q0 57 52.5 89.5t134.5 32.5q183 0 183 -158zM114 762h119l57 -168h-25l-151 162v6z" />
    <glyph glyph-name="aacute" unicode="&#xe1;" horiz-adv-x="506" 
d="M218 58q41 0 96 44v188l-105 -43q-37 -14 -55.5 -36.5t-18.5 -61.5q0 -42 21 -66.5t62 -24.5zM426 376v-265q0 -32 8 -46.5t28 -14.5q19 0 43 11l6 -18q-39 -53 -104 -53q-78 0 -91 89q-73 -88 -158 -88q-60 0 -95.5 34.5t-35.5 92.5t36 91t104 58l147 54v76
q0 109 -83 109q-38 0 -56.5 -23.5t-18.5 -63.5q0 -22 8 -56l-66 -9q-42 13 -42 58q0 57 52.5 89.5t134.5 32.5q183 0 183 -158zM268 762h118v-6l-151 -162h-25z" />
    <glyph glyph-name="acircumflex" unicode="&#xe2;" horiz-adv-x="506" 
d="M218 58q41 0 96 44v188l-105 -43q-37 -14 -55.5 -36.5t-18.5 -61.5q0 -42 21 -66.5t62 -24.5zM426 376v-265q0 -32 8 -46.5t28 -14.5q19 0 43 11l6 -18q-39 -53 -104 -53q-78 0 -91 89q-73 -88 -158 -88q-60 0 -95.5 34.5t-35.5 92.5t36 91t104 58l147 54v76
q0 109 -83 109q-38 0 -56.5 -23.5t-18.5 -63.5q0 -22 8 -56l-66 -9q-42 13 -42 58q0 57 52.5 89.5t134.5 32.5q183 0 183 -158zM287 765l112 -172h-33l-119 103l-119 -103h-33l112 172h80z" />
    <glyph glyph-name="atilde" unicode="&#xe3;" horiz-adv-x="506" 
d="M218 58q41 0 96 44v188l-105 -43q-37 -14 -55.5 -36.5t-18.5 -61.5q0 -42 21 -66.5t62 -24.5zM426 376v-265q0 -32 8 -46.5t28 -14.5q19 0 43 11l6 -18q-39 -53 -104 -53q-78 0 -91 89q-73 -88 -158 -88q-60 0 -95.5 34.5t-35.5 92.5t36 91t104 58l147 54v76
q0 109 -83 109q-38 0 -56.5 -23.5t-18.5 -63.5q0 -22 8 -56l-66 -9q-42 13 -42 58q0 57 52.5 89.5t134.5 32.5q183 0 183 -158zM307 601q-29 0 -71 29.5t-63 29.5t-36 -13t-32 -43l-22 12q29 69 50.5 94.5t55.5 25.5q29 0 71 -29.5t63 -29.5t36 13t32 44l22 -12
q-29 -69 -50.5 -95t-55.5 -26z" />
    <glyph glyph-name="adieresis" unicode="&#xe4;" horiz-adv-x="506" 
d="M218 58q41 0 96 44v188l-105 -43q-37 -14 -55.5 -36.5t-18.5 -61.5q0 -42 21 -66.5t62 -24.5zM426 376v-265q0 -32 8 -46.5t28 -14.5q19 0 43 11l6 -18q-39 -53 -104 -53q-78 0 -91 89q-73 -88 -158 -88q-60 0 -95.5 34.5t-35.5 92.5t36 91t104 58l147 54v76
q0 109 -83 109q-38 0 -56.5 -23.5t-18.5 -63.5q0 -22 8 -56l-66 -9q-42 13 -42 58q0 57 52.5 89.5t134.5 32.5q183 0 183 -158zM87 674q0 28 19 47.5t47 19.5t48 -19.5t20 -47.5t-20 -47.5t-48 -19.5t-47 19.5t-19 47.5zM273 674q0 28 19.5 47.5t47.5 19.5t47.5 -19.5
t19.5 -47.5t-19.5 -47.5t-47.5 -19.5t-47.5 19.5t-19.5 47.5z" />
    <glyph glyph-name="aring" unicode="&#xe5;" horiz-adv-x="506" 
d="M218 58q41 0 96 44v188l-105 -43q-37 -14 -55.5 -36.5t-18.5 -61.5q0 -42 21 -66.5t62 -24.5zM426 376v-265q0 -32 8 -46.5t28 -14.5q19 0 43 11l6 -18q-39 -53 -104 -53q-78 0 -91 89q-73 -88 -158 -88q-60 0 -95.5 34.5t-35.5 92.5t36 91t104 58l147 54v76
q0 109 -83 109q-38 0 -56.5 -23.5t-18.5 -63.5q0 -22 8 -56l-66 -9q-42 13 -42 58q0 57 52.5 89.5t134.5 32.5q183 0 183 -158zM194 658q0 -25 14 -40.5t39 -15.5t39 15.5t14 40.5t-14 41t-39 16t-39 -16t-14 -41zM157 658q0 38 25.5 64t64.5 26t64.5 -26t25.5 -64
t-25.5 -63.5t-64.5 -25.5t-64.5 25.5t-25.5 63.5z" />
    <glyph glyph-name="ae" unicode="&#xe6;" horiz-adv-x="746" 
d="M528 534q93 0 144 -57.5t51 -148.5v-22h-325q-4 -111 43 -173.5t126 -62.5q93 0 148 85l14 -7q-19 -72 -72.5 -115t-132.5 -43q-120 0 -182 94q-77 -93 -183 -93q-61 0 -96.5 34.5t-35.5 92.5t36 91t104 58l136 47q4 24 12 49q0 64 -22 103.5t-67 39.5q-35 0 -52.5 -24
t-17.5 -63q0 -22 8 -56l-66 -9q-42 13 -42 58q0 57 51 89.5t127 32.5q102 0 142 -66q63 66 152 66zM220 58q56 0 111 45q-33 64 -33 145q0 22 1 33l-88 -33q-39 -15 -57.5 -37.5t-18.5 -61.5q0 -42 21.5 -66.5t63.5 -24.5zM519 500q-51 0 -81 -44.5t-37 -116.5h218
q0 74 -24.5 117.5t-75.5 43.5z" />
    <glyph glyph-name="ccedilla" unicode="&#xe7;" horiz-adv-x="455" 
d="M144 -223l-6 28q53 0 83.5 14.5t30.5 37.5q0 39 -85 42l38 95q-83 14 -132.5 81.5t-49.5 168.5q0 127 68.5 208.5t181.5 81.5q72 0 114.5 -29t42.5 -81q0 -45 -35 -64h-66q4 26 4 45q0 95 -78 95q-61 0 -97 -58.5t-36 -147.5q0 -100 44 -160.5t120 -60.5q91 0 143 79
l15 -7q-48 -155 -196 -155q-10 0 -15 1l-15 -37q102 -2 102 -76q0 -50 -48.5 -75.5t-127.5 -25.5z" />
    <glyph glyph-name="egrave" unicode="&#xe8;" horiz-adv-x="477" 
d="M259 534q93 0 144 -56.5t51 -146.5v-21h-329q-4 -111 45 -175.5t127 -64.5q93 0 150 85l13 -7q-19 -72 -72 -115t-132 -43q-106 0 -169 72.5t-63 185.5q0 124 67.5 205t167.5 81zM250 500q-52 0 -84 -44t-38 -114h222q0 158 -100 158zM135 762h119l57 -168h-25l-151 162
v6z" />
    <glyph glyph-name="eacute" unicode="&#xe9;" horiz-adv-x="477" 
d="M289 762h118v-6l-151 -162h-25zM259 534q93 0 144 -56.5t51 -146.5v-21h-329q-4 -111 45 -175.5t127 -64.5q93 0 150 85l13 -7q-19 -72 -72 -115t-132 -43q-106 0 -169 72.5t-63 185.5q0 124 67.5 205t167.5 81zM250 500q-52 0 -84 -44t-38 -114h222q0 158 -100 158z" />
    <glyph glyph-name="ecircumflex" unicode="&#xea;" horiz-adv-x="477" 
d="M304 765l112 -172h-33l-119 103l-119 -103h-33l112 172h80zM259 534q93 0 144 -56.5t51 -146.5v-21h-329q-4 -111 45 -175.5t127 -64.5q93 0 150 85l13 -7q-19 -72 -72 -115t-132 -43q-106 0 -169 72.5t-63 185.5q0 124 67.5 205t167.5 81zM250 500q-52 0 -84 -44
t-38 -114h222q0 158 -100 158z" />
    <glyph glyph-name="edieresis" unicode="&#xeb;" horiz-adv-x="477" 
d="M104 674q0 28 19 47.5t47 19.5t48 -19.5t20 -47.5t-20 -47.5t-48 -19.5t-47 19.5t-19 47.5zM290 674q0 28 19.5 47.5t47.5 19.5t47.5 -19.5t19.5 -47.5t-19.5 -47.5t-47.5 -19.5t-47.5 19.5t-19.5 47.5zM259 534q93 0 144 -56.5t51 -146.5v-21h-329q-4 -111 45 -175.5
t127 -64.5q93 0 150 85l13 -7q-19 -72 -72 -115t-132 -43q-106 0 -169 72.5t-63 185.5q0 124 67.5 205t167.5 81zM250 500q-52 0 -84 -44t-38 -114h222q0 158 -100 158z" />
    <glyph glyph-name="igrave" unicode="&#xec;" horiz-adv-x="280" 
d="M199 534v-458q0 -27 13.5 -36t52.5 -11v-29h-244v29q39 2 52.5 11t13.5 36v357l-63 35v14l159 52h16zM11 762h119l57 -168h-25l-151 162v6z" />
    <glyph glyph-name="iacute" unicode="&#xed;" horiz-adv-x="280" 
d="M165 762h118v-6l-151 -162h-25zM199 534v-458q0 -27 13.5 -36t52.5 -11v-29h-244v29q39 2 52.5 11t13.5 36v357l-63 35v14l159 52h16z" />
    <glyph glyph-name="icircumflex" unicode="&#xee;" horiz-adv-x="280" 
d="M176 765l102 -173h-30l-108 104l-108 -104h-29l101 173h72zM199 534v-458q0 -27 13.5 -36t52.5 -11v-29h-244v29q39 2 52.5 11t13.5 36v357l-63 35v14l159 52h16z" />
    <glyph glyph-name="idieresis" unicode="&#xef;" horiz-adv-x="280" 
d="M-15 674q0 28 19.5 47.5t46.5 19.5q28 0 48 -19.5t20 -47.5t-20 -47.5t-48 -19.5q-27 0 -46.5 19.5t-19.5 47.5zM163 674q0 28 19.5 47.5t47.5 19.5t47.5 -19.5t19.5 -47.5t-19.5 -47.5t-47.5 -19.5t-47.5 19.5t-19.5 47.5zM199 534v-458q0 -27 13.5 -36t52.5 -11v-29
h-244v29q39 2 52.5 11t13.5 36v357l-63 35v14l159 52h16z" />
    <glyph glyph-name="eth" unicode="&#xf0;" horiz-adv-x="537" 
d="M116 586l-11 31l150 55q-63 60 -144 87l14 25q103 -28 190 -90l107 39l12 -32l-87 -32q81 -70 124 -164t43 -198q0 -143 -66.5 -230t-176.5 -87q-112 0 -180 73t-68 192q0 124 70.5 201.5t168.5 77.5q75 0 118 -62q-30 99 -99 174zM272 23q60 0 92 60t32 162
q0 112 -32.5 184t-96.5 72q-60 0 -92.5 -60t-32.5 -162q0 -111 33 -183.5t97 -72.5z" />
    <glyph glyph-name="ntilde" unicode="&#xf1;" horiz-adv-x="598" 
d="M409 76v292q0 97 -84 97q-61 0 -126 -52v-337q0 -27 13.5 -36t51.5 -11v-29h-243v29q39 2 52.5 11t13.5 36v357l-63 35v14l162 52h17l-4 -96q85 96 183 96q139 0 139 -161v-297q0 -27 13.5 -36t52.5 -11v-29h-244v29q39 2 52.5 11t13.5 36zM372 601q-29 0 -71 29.5
t-63 29.5t-36 -13t-32 -43l-22 12q29 69 50.5 94.5t55.5 25.5q29 0 71 -29.5t63 -29.5t36 13t32 44l22 -12q-29 -69 -50.5 -95t-55.5 -26z" />
    <glyph glyph-name="ograve" unicode="&#xf2;" horiz-adv-x="537" 
d="M271 23q60 0 92.5 60t32.5 162q0 112 -33 184t-97 72q-60 0 -92 -60t-32 -162q0 -111 33 -183.5t96 -72.5zM266 -10q-109 0 -176 71.5t-67 188.5q0 126 70.5 205t177.5 79q109 0 176 -71.5t67 -187.5q0 -127 -70.5 -206t-177.5 -79zM136 762h119l57 -168h-25l-151 162v6z
" />
    <glyph glyph-name="oacute" unicode="&#xf3;" horiz-adv-x="537" 
d="M291 762h118v-6l-151 -162h-25zM271 23q60 0 92.5 60t32.5 162q0 112 -33 184t-97 72q-60 0 -92 -60t-32 -162q0 -111 33 -183.5t96 -72.5zM266 -10q-109 0 -176 71.5t-67 188.5q0 126 70.5 205t177.5 79q109 0 176 -71.5t67 -187.5q0 -127 -70.5 -206t-177.5 -79z" />
    <glyph glyph-name="ocircumflex" unicode="&#xf4;" horiz-adv-x="537" 
d="M309 765l112 -172h-33l-119 103l-119 -103h-33l112 172h80zM271 23q60 0 92.5 60t32.5 162q0 112 -33 184t-97 72q-60 0 -92 -60t-32 -162q0 -111 33 -183.5t96 -72.5zM266 -10q-109 0 -176 71.5t-67 188.5q0 126 70.5 205t177.5 79q109 0 176 -71.5t67 -187.5
q0 -127 -70.5 -206t-177.5 -79z" />
    <glyph glyph-name="otilde" unicode="&#xf5;" horiz-adv-x="537" 
d="M271 23q60 0 92.5 60t32.5 162q0 112 -33 184t-97 72q-60 0 -92 -60t-32 -162q0 -111 33 -183.5t96 -72.5zM266 -10q-109 0 -176 71.5t-67 188.5q0 126 70.5 205t177.5 79q109 0 176 -71.5t67 -187.5q0 -127 -70.5 -206t-177.5 -79zM334 601q-29 0 -71 29.5t-63 29.5
t-36 -13t-32 -43l-22 12q29 69 50.5 94.5t55.5 25.5q29 0 71 -29.5t63 -29.5t36 13t32 44l22 -12q-29 -69 -50.5 -95t-55.5 -26z" />
    <glyph glyph-name="odieresis" unicode="&#xf6;" horiz-adv-x="537" 
d="M109 674q0 28 19 47.5t47 19.5t48 -19.5t20 -47.5t-20 -47.5t-48 -19.5t-47 19.5t-19 47.5zM295 674q0 28 19.5 47.5t47.5 19.5t47.5 -19.5t19.5 -47.5t-19.5 -47.5t-47.5 -19.5t-47.5 19.5t-19.5 47.5zM271 23q60 0 92.5 60t32.5 162q0 112 -33 184t-97 72
q-60 0 -92 -60t-32 -162q0 -111 33 -183.5t96 -72.5zM266 -10q-109 0 -176 71.5t-67 188.5q0 126 70.5 205t177.5 79q109 0 176 -71.5t67 -187.5q0 -127 -70.5 -206t-177.5 -79z" />
    <glyph glyph-name="divide" unicode="&#xf7;" horiz-adv-x="566" 
d="M64 343v56h439v-56h-439zM229 206q0 22 15.5 37.5t37.5 15.5q23 0 38.5 -15.5t15.5 -37.5t-16 -38t-38 -16t-37.5 15.5t-15.5 38.5zM229 536q0 22 15.5 37.5t37.5 15.5t38 -15.5t16 -37.5t-16 -38t-38 -16t-37.5 15.5t-15.5 38.5z" />
    <glyph glyph-name="oslash" unicode="&#xf8;" horiz-adv-x="537" 
d="M266 -10q-76 0 -134 36l-49 -75l-28 17l51 77q-83 72 -83 205q0 126 70.5 205t177.5 79q75 0 133 -36l51 77l28 -17l-53 -80q84 -71 84 -203q0 -127 -70.5 -206t-177.5 -79zM271 23q60 0 92.5 60t32.5 162q0 85 -20 150l-200 -303q34 -69 95 -69zM142 279q0 -88 19 -149
l200 303q-34 68 -95 68q-60 0 -92 -60t-32 -162z" />
    <glyph glyph-name="ugrave" unicode="&#xf9;" horiz-adv-x="574" 
d="M493 423v-322q0 -27 7 -35.5t37 -11.5l26 -2v-26l-165 -36h-20l4 95q-43 -45 -83 -70t-90 -25q-140 0 -140 159v269q0 27 -10 38t-41 16l-16 2v27l167 32h16l-5 -114v-252q0 -107 84 -107q52 0 118 48v310q0 27 -9.5 38t-41.5 16l-15 2v27l165 32h16zM152 762h119
l57 -168h-25l-151 162v6z" />
    <glyph glyph-name="uacute" unicode="&#xfa;" horiz-adv-x="574" 
d="M307 762h118v-6l-151 -162h-25zM493 423v-322q0 -27 7 -35.5t37 -11.5l26 -2v-26l-165 -36h-20l4 95q-43 -45 -83 -70t-90 -25q-140 0 -140 159v269q0 27 -10 38t-41 16l-16 2v27l167 32h16l-5 -114v-252q0 -107 84 -107q52 0 118 48v310q0 27 -9.5 38t-41.5 16l-15 2v27
l165 32h16z" />
    <glyph glyph-name="ucircumflex" unicode="&#xfb;" horiz-adv-x="574" 
d="M325 765l112 -172h-33l-119 103l-119 -103h-33l112 172h80zM493 423v-322q0 -27 7 -35.5t37 -11.5l26 -2v-26l-165 -36h-20l4 95q-43 -45 -83 -70t-90 -25q-140 0 -140 159v269q0 27 -10 38t-41 16l-16 2v27l167 32h16l-5 -114v-252q0 -107 84 -107q52 0 118 48v310
q0 27 -9.5 38t-41.5 16l-15 2v27l165 32h16z" />
    <glyph glyph-name="udieresis" unicode="&#xfc;" horiz-adv-x="574" 
d="M125 674q0 28 19 47.5t47 19.5t48 -19.5t20 -47.5t-20 -47.5t-48 -19.5t-47 19.5t-19 47.5zM311 674q0 28 19.5 47.5t47.5 19.5t47.5 -19.5t19.5 -47.5t-19.5 -47.5t-47.5 -19.5t-47.5 19.5t-19.5 47.5zM493 423v-322q0 -27 7 -35.5t37 -11.5l26 -2v-26l-165 -36h-20
l4 95q-43 -45 -83 -70t-90 -25q-140 0 -140 159v269q0 27 -10 38t-41 16l-16 2v27l167 32h16l-5 -114v-252q0 -107 84 -107q52 0 118 48v310q0 27 -9.5 38t-41.5 16l-15 2v27l165 32h16z" />
    <glyph glyph-name="yacute" unicode="&#xfd;" horiz-adv-x="542" 
d="M315 114l119 320q6 18 6 28q0 16 -14 22t-55 11v29h166v-29q-26 -6 -35.5 -13.5t-15.5 -23.5l-216 -558q-24 -62 -51.5 -90.5t-72.5 -28.5q-25 0 -46 13t-28 35v39q34 -9 62 -9q43 0 69 16.5t42 60.5l18 48l-207 474q-7 17 -16 24t-35 13v29h244v-29q-41 -5 -55 -11
t-14 -22q0 -10 6 -28zM319 762h118v-6l-151 -162h-25z" />
    <glyph glyph-name="thorn" unicode="&#xfe;" horiz-adv-x="574" 
d="M438 249q0 95 -37 155.5t-111 60.5q-62 0 -105 -46v-275q0 -121 103 -121q68 0 109 64t41 162zM73 -136v821l-63 34v15l158 49h17v-340q63 91 168 91q93 0 145.5 -64.5t52.5 -176.5q0 -139 -74 -221t-185 -82q-69 0 -107 32v-155q0 -29 16.5 -37.5t69.5 -12.5v-29h-264
v29q39 2 52.5 11t13.5 36z" />
    <glyph glyph-name="ydieresis" unicode="&#xff;" horiz-adv-x="542" 
d="M315 114l119 320q6 18 6 28q0 16 -14 22t-55 11v29h166v-29q-26 -6 -35.5 -13.5t-15.5 -23.5l-216 -558q-24 -62 -51.5 -90.5t-72.5 -28.5q-25 0 -46 13t-28 35v39q34 -9 62 -9q43 0 69 16.5t42 60.5l18 48l-207 474q-7 17 -16 24t-35 13v29h244v-29q-41 -5 -55 -11
t-14 -22q0 -10 6 -28zM137 674q0 28 19 47.5t47 19.5t48 -19.5t20 -47.5t-20 -47.5t-48 -19.5t-47 19.5t-19 47.5zM323 674q0 28 19.5 47.5t47.5 19.5t47.5 -19.5t19.5 -47.5t-19.5 -47.5t-47.5 -19.5t-47.5 19.5t-19.5 47.5z" />
    <glyph glyph-name="Amacron" unicode="&#x100;" horiz-adv-x="711" 
d="M505 114l-51 125h-279l-48 -125q-10 -23 -10 -39q0 -23 20 -33t69 -12v-30h-201v30q17 3 26 6t18.5 10.5t14.5 20.5l225 572l-30 70h126l262 -642q7 -18 20.5 -25.5t38.5 -11.5v-30h-279v30q48 2 67.5 11.5t19.5 32.5q0 18 -9 40zM312 590l-122 -314h249zM196 768v58h284
v-58h-284z" />
    <glyph glyph-name="amacron" unicode="&#x101;" horiz-adv-x="506" 
d="M218 58q41 0 96 44v188l-105 -43q-37 -14 -55.5 -36.5t-18.5 -61.5q0 -42 21 -66.5t62 -24.5zM426 376v-265q0 -32 8 -46.5t28 -14.5q19 0 43 11l6 -18q-39 -53 -104 -53q-78 0 -91 89q-73 -88 -158 -88q-60 0 -95.5 34.5t-35.5 92.5t36 91t104 58l147 54v76
q0 109 -83 109q-38 0 -56.5 -23.5t-18.5 -63.5q0 -22 8 -56l-66 -9q-42 13 -42 58q0 57 52.5 89.5t134.5 32.5q183 0 183 -158zM117 623v58h259v-58h-259z" />
    <glyph glyph-name="Abreve" unicode="&#x102;" horiz-adv-x="711" 
d="M505 114l-51 125h-279l-48 -125q-10 -23 -10 -39q0 -23 20 -33t69 -12v-30h-201v30q17 3 26 6t18.5 10.5t14.5 20.5l225 572l-30 70h126l262 -642q7 -18 20.5 -25.5t38.5 -11.5v-30h-279v30q48 2 67.5 11.5t19.5 32.5q0 18 -9 40zM312 590l-122 -314h249zM339 746
q-67 0 -105 40t-38 117h31q13 -87 112 -87t112 87h30q0 -77 -37.5 -117t-104.5 -40z" />
    <glyph glyph-name="abreve" unicode="&#x103;" horiz-adv-x="506" 
d="M218 58q41 0 96 44v188l-105 -43q-37 -14 -55.5 -36.5t-18.5 -61.5q0 -42 21 -66.5t62 -24.5zM426 376v-265q0 -32 8 -46.5t28 -14.5q19 0 43 11l6 -18q-39 -53 -104 -53q-78 0 -91 89q-73 -88 -158 -88q-60 0 -95.5 34.5t-35.5 92.5t36 91t104 58l147 54v76
q0 109 -83 109q-38 0 -56.5 -23.5t-18.5 -63.5q0 -22 8 -56l-66 -9q-42 13 -42 58q0 57 52.5 89.5t134.5 32.5q183 0 183 -158zM247 596q-64 0 -97.5 41t-33.5 120h33q8 -91 98 -91q89 0 97 91h33q0 -79 -33.5 -120t-96.5 -41z" />
    <glyph glyph-name="Aogonek" unicode="&#x104;" horiz-adv-x="711" 
d="M312 590l-123 -314h249zM442 17q42 11 57.5 22.5t15.5 33.5q0 15 -10 40l-52 126h-277l-49 -125q-10 -23 -10 -39q0 -23 20 -33t69 -12v-30h-201v30q17 3 26 6t18.5 10.5t14.5 20.5l225 572l-30 70h126l262 -642q7 -18 20.5 -25.5t38.5 -11.5v-30h-239
q-49 -8 -78.5 -36.5t-29.5 -70.5q0 -53 49 -53q39 0 79 34l11 -13q-57 -72 -125 -72q-39 0 -63.5 23t-24.5 61q0 102 157 144z" />
    <glyph glyph-name="aogonek" unicode="&#x105;" horiz-adv-x="506" 
d="M426 376v-265q0 -32 8 -46.5t28 -14.5q19 0 43 11l6 -18q-16 -14 -62 -37.5t-72.5 -49.5t-26.5 -64q0 -52 48 -52q40 0 80 34l12 -13q-57 -72 -127 -72q-39 0 -63 22.5t-24 58.5q0 69 109 122q-27 9 -46 31.5t-23 55.5q-73 -88 -158 -88q-60 0 -95.5 34.5t-35.5 92.5
t36 91t104 58l147 54v76q0 109 -83 109q-38 0 -56.5 -23.5t-18.5 -63.5q0 -22 8 -56l-66 -9q-42 13 -42 58q0 57 52.5 89.5t134.5 32.5q183 0 183 -158zM218 58q41 0 96 44v188l-105 -43q-37 -14 -55.5 -36.5t-18.5 -61.5q0 -42 21 -66.5t62 -24.5z" />
    <glyph glyph-name="Cacute" unicode="&#x106;" horiz-adv-x="641" 
d="M372 712q127 0 218 -59l1 -153h-32q-35 175 -186 175q-104 0 -159.5 -88t-55.5 -224q0 -146 59.5 -240.5t164.5 -94.5q76 0 124 48t72 153h35l-14 -182q-93 -57 -223 -57q-158 0 -251.5 95t-93.5 250q0 170 96.5 273.5t244.5 103.5zM398 898h122v-6l-150 -143h-26z" />
    <glyph glyph-name="cacute" unicode="&#x107;" horiz-adv-x="455" 
d="M289 762h118v-6l-151 -162h-25zM122 294q0 -100 44 -160.5t120 -60.5q91 0 143 79l15 -7q-48 -155 -196 -155q-100 0 -162.5 70t-62.5 184q0 127 68.5 208.5t181.5 81.5q72 0 114.5 -29t42.5 -81q0 -45 -35 -64h-66q4 26 4 45q0 95 -78 95q-61 0 -97 -58.5t-36 -147.5z
" />
    <glyph glyph-name="Ccircumflex" unicode="&#x108;" horiz-adv-x="641" 
d="M372 712q127 0 218 -59l1 -153h-32q-35 175 -186 175q-104 0 -159.5 -88t-55.5 -224q0 -146 59.5 -240.5t164.5 -94.5q76 0 124 48t72 153h35l-14 -182q-93 -57 -223 -57q-158 0 -251.5 95t-93.5 250q0 170 96.5 273.5t244.5 103.5zM420 907l128 -158h-31l-137 89
l-137 -89h-31l128 158h80z" />
    <glyph glyph-name="ccircumflex" unicode="&#x109;" horiz-adv-x="455" 
d="M306 765l112 -172h-33l-119 103l-119 -103h-33l112 172h80zM122 294q0 -100 44 -160.5t120 -60.5q91 0 143 79l15 -7q-48 -155 -196 -155q-100 0 -162.5 70t-62.5 184q0 127 68.5 208.5t181.5 81.5q72 0 114.5 -29t42.5 -81q0 -45 -35 -64h-66q4 26 4 45q0 95 -78 95
q-61 0 -97 -58.5t-36 -147.5z" />
    <glyph glyph-name="Cdotaccent" unicode="&#x10a;" horiz-adv-x="641" 
d="M380 753q-30 0 -50.5 20.5t-20.5 50.5q0 29 20.5 49.5t50.5 20.5q31 0 51.5 -20.5t20.5 -49.5q0 -30 -20.5 -50.5t-51.5 -20.5zM372 712q127 0 218 -59l1 -153h-32q-35 175 -186 175q-104 0 -159.5 -88t-55.5 -224q0 -146 59.5 -240.5t164.5 -94.5q76 0 124 48t72 153h35
l-14 -182q-93 -57 -223 -57q-158 0 -251.5 95t-93.5 250q0 170 96.5 273.5t244.5 103.5z" />
    <glyph glyph-name="cdotaccent" unicode="&#x10b;" horiz-adv-x="455" 
d="M122 294q0 -100 44 -160.5t120 -60.5q91 0 143 79l15 -7q-48 -155 -196 -155q-100 0 -162.5 70t-62.5 184q0 127 68.5 208.5t181.5 81.5q72 0 114.5 -29t42.5 -81q0 -45 -35 -64h-66q4 26 4 45q0 95 -78 95q-61 0 -97 -58.5t-36 -147.5zM266 605q-30 0 -50.5 21t-20.5 50
t20.5 50t50.5 21q31 0 51.5 -21t20.5 -50t-20.5 -50t-51.5 -21z" />
    <glyph glyph-name="Ccaron" unicode="&#x10c;" horiz-adv-x="641" 
d="M372 712q127 0 218 -59l1 -153h-32q-35 175 -186 175q-104 0 -159.5 -88t-55.5 -224q0 -146 59.5 -240.5t164.5 -94.5q76 0 124 48t72 153h35l-14 -182q-93 -57 -223 -57q-158 0 -251.5 95t-93.5 250q0 170 96.5 273.5t244.5 103.5zM548 907l-128 -158h-80l-128 158h31
l137 -89l137 89h31z" />
    <glyph glyph-name="ccaron" unicode="&#x10d;" horiz-adv-x="455" 
d="M419 767l-112 -172h-80l-112 172h33l119 -103l119 103h33zM122 294q0 -100 44 -160.5t120 -60.5q91 0 143 79l15 -7q-48 -155 -196 -155q-100 0 -162.5 70t-62.5 184q0 127 68.5 208.5t181.5 81.5q72 0 114.5 -29t42.5 -81q0 -45 -35 -64h-66q4 26 4 45q0 95 -78 95
q-61 0 -97 -58.5t-36 -147.5z" />
    <glyph glyph-name="Dcaron" unicode="&#x10e;" horiz-adv-x="726" 
d="M503 907l-128 -158h-80l-128 158h31l137 -89l137 89h31zM300 666h-70v-559q0 -42 19 -56.5t65 -14.5h23q103 0 166.5 81t63.5 229q0 90 -25.5 159.5t-87.5 115t-154 45.5zM338 0h-310v30q55 7 69.5 18.5t14.5 52.5v500q0 41 -14.5 52.5t-69.5 18.5v30h294
q183 0 277.5 -95t94.5 -239q0 -171 -100.5 -269.5t-255.5 -98.5z" />
    <glyph glyph-name="dcaron" unicode="&#x10f;" horiz-adv-x="578" 
d="M661 777l-107 -199h-17l18 205h106v-6zM279 499q-68 0 -108 -59.5t-40 -158.5q0 -95 40 -155.5t112 -60.5q63 0 102 41v256q0 64 -29 100.5t-77 36.5zM385 685l-63 34v15l159 49h16v-682q0 -27 7 -35.5t37 -11.5l26 -2v-26l-166 -36h-20l4 93q-68 -93 -161 -93
q-91 0 -146 68.5t-55 178.5q0 136 70.5 216t178.5 80q73 0 113 -37v189z" />
    <glyph glyph-name="Dcroat" unicode="&#x110;" horiz-adv-x="736" 
d="M38 341v41h84v219q0 41 -14.5 52.5t-69.5 18.5v30h294q183 0 277.5 -95t94.5 -239q0 -171 -100.5 -269.5t-255.5 -98.5h-310v30q55 7 69.5 18.5t14.5 52.5v240h-84zM310 666h-70v-284h139v-41h-139v-234q0 -42 19 -56.5t65 -14.5h23q103 0 166.5 81t63.5 229
q0 90 -25.5 159.5t-87.5 115t-154 45.5z" />
    <glyph glyph-name="dcroat" unicode="&#x111;" horiz-adv-x="578" 
d="M385 685l-63 34v15l159 49h16v-152h70v-37h-70v-493q0 -27 7 -35.5t37 -11.5l26 -2v-26l-166 -36h-20l4 93q-68 -93 -161 -93q-91 0 -146 68.5t-55 178.5q0 136 70.5 216t178.5 80q73 0 113 -37v98h-126v37h126v54zM279 499q-68 0 -108 -59.5t-40 -158.5q0 -95 40 -155.5
t112 -60.5q63 0 102 41v256q0 64 -29 100.5t-77 36.5z" />
    <glyph glyph-name="Emacron" unicode="&#x112;" horiz-adv-x="623" 
d="M189 768v58h284v-58h-284zM28 0v30q55 7 69.5 18.5t14.5 52.5v500q0 41 -14.5 52.5t-69.5 18.5v30h534l5 -173h-24q-35 81 -66 109t-86 28h-161v-285h144q32 0 47 21t23 70h31v-219h-31q-8 48 -23 69t-47 21h-144v-239q0 -39 21.5 -53.5t72.5 -14.5h78q54 0 87 31.5
t85 121.5h29l-31 -189h-544z" />
    <glyph glyph-name="emacron" unicode="&#x113;" horiz-adv-x="477" 
d="M259 534q93 0 144 -56.5t51 -146.5v-21h-329q-4 -111 45 -175.5t127 -64.5q93 0 150 85l13 -7q-19 -72 -72 -115t-132 -43q-106 0 -169 72.5t-63 185.5q0 124 67.5 205t167.5 81zM250 500q-52 0 -84 -44t-38 -114h222q0 158 -100 158zM130 623v58h259v-58h-259z" />
    <glyph glyph-name="Ebreve" unicode="&#x114;" horiz-adv-x="623" 
d="M332 746q-67 0 -105 40t-38 117h31q13 -87 112 -87t112 87h30q0 -77 -37.5 -117t-104.5 -40zM28 0v30q55 7 69.5 18.5t14.5 52.5v500q0 41 -14.5 52.5t-69.5 18.5v30h534l5 -173h-24q-35 81 -66 109t-86 28h-161v-285h144q32 0 47 21t23 70h31v-219h-31q-8 48 -23 69
t-47 21h-144v-239q0 -39 21.5 -53.5t72.5 -14.5h78q54 0 87 31.5t85 121.5h29l-31 -189h-544z" />
    <glyph glyph-name="ebreve" unicode="&#x115;" horiz-adv-x="477" 
d="M259 534q93 0 144 -56.5t51 -146.5v-21h-329q-4 -111 45 -175.5t127 -64.5q93 0 150 85l13 -7q-19 -72 -72 -115t-132 -43q-106 0 -169 72.5t-63 185.5q0 124 67.5 205t167.5 81zM250 500q-52 0 -84 -44t-38 -114h222q0 158 -100 158zM268 596q-64 0 -97.5 41t-33.5 120
h33q8 -91 98 -91q89 0 97 91h33q0 -79 -33.5 -120t-96.5 -41z" />
    <glyph glyph-name="Edotaccent" unicode="&#x116;" horiz-adv-x="623" 
d="M331 753q-30 0 -50.5 20.5t-20.5 50.5q0 29 20.5 49.5t50.5 20.5q31 0 51.5 -20.5t20.5 -49.5q0 -30 -20.5 -50.5t-51.5 -20.5zM28 0v30q55 7 69.5 18.5t14.5 52.5v500q0 41 -14.5 52.5t-69.5 18.5v30h534l5 -173h-24q-35 81 -66 109t-86 28h-161v-285h144q32 0 47 21
t23 70h31v-219h-31q-8 48 -23 69t-47 21h-144v-239q0 -39 21.5 -53.5t72.5 -14.5h78q54 0 87 31.5t85 121.5h29l-31 -189h-544z" />
    <glyph glyph-name="edotaccent" unicode="&#x117;" horiz-adv-x="477" 
d="M259 534q93 0 144 -56.5t51 -146.5v-21h-329q-4 -111 45 -175.5t127 -64.5q93 0 150 85l13 -7q-19 -72 -72 -115t-132 -43q-106 0 -169 72.5t-63 185.5q0 124 67.5 205t167.5 81zM250 500q-52 0 -84 -44t-38 -114h222q0 158 -100 158zM261 605q-30 0 -50.5 21t-20.5 50
t20.5 50t50.5 21q31 0 51.5 -21t20.5 -50t-20.5 -50t-51.5 -21z" />
    <glyph glyph-name="Eogonek" unicode="&#x118;" horiz-adv-x="623" 
d="M28 0v30q55 7 69.5 18.5t14.5 52.5v500q0 41 -14.5 52.5t-69.5 18.5v30h534l5 -173h-24q-35 81 -66 109t-86 28h-161v-285h144q32 0 47 21t23 70h31v-219h-31q-8 48 -23 69t-47 21h-144v-239q0 -39 21.5 -53.5t72.5 -14.5h78q54 0 87 31.5t85 121.5h29l-31 -189h-97
q-91 -44 -91 -108q0 -52 49 -52q39 0 80 34l11 -13q-57 -72 -127 -72q-39 0 -63 22.5t-24 58.5q0 77 122 130h-404z" />
    <glyph glyph-name="eogonek" unicode="&#x119;" horiz-adv-x="477" 
d="M260 534q92 0 143 -56.5t51 -146.5v-21h-329q-4 -111 45 -175.5t127 -64.5q93 0 150 85l13 -7q-27 -103 -126 -145q-97 -40 -97 -109q0 -54 48 -54q40 0 80 34l12 -13q-57 -72 -127 -72q-39 0 -63 22.5t-24 58.5q0 71 105 120h-12q-106 0 -169 72.5t-63 185.5
q0 124 67.5 205t168.5 81zM250 500q-52 0 -84 -44t-38 -114h222q0 158 -100 158z" />
    <glyph glyph-name="Ecaron" unicode="&#x11a;" horiz-adv-x="623" 
d="M500 907l-128 -158h-80l-128 158h31l137 -89l137 89h31zM28 0v30q55 7 69.5 18.5t14.5 52.5v500q0 41 -14.5 52.5t-69.5 18.5v30h534l5 -173h-24q-35 81 -66 109t-86 28h-161v-285h144q32 0 47 21t23 70h31v-219h-31q-8 48 -23 69t-47 21h-144v-239q0 -39 21.5 -53.5
t72.5 -14.5h78q54 0 87 31.5t85 121.5h29l-31 -189h-544z" />
    <glyph glyph-name="ecaron" unicode="&#x11b;" horiz-adv-x="477" 
d="M412 767l-112 -172h-80l-112 172h33l119 -103l119 103h33zM259 534q93 0 144 -56.5t51 -146.5v-21h-329q-4 -111 45 -175.5t127 -64.5q93 0 150 85l13 -7q-19 -72 -72 -115t-132 -43q-106 0 -169 72.5t-63 185.5q0 124 67.5 205t167.5 81zM250 500q-52 0 -84 -44
t-38 -114h222q0 158 -100 158z" />
    <glyph glyph-name="Gcircumflex" unicode="&#x11c;" horiz-adv-x="707" 
d="M503 62v165q0 41 -14 52t-70 18v31h280v-31q-56 -7 -70 -18t-14 -52v-166q-106 -71 -246 -71q-156 0 -247 98t-91 247q0 171 97.5 274t249.5 103q134 0 221 -57v-155h-32q-35 176 -187 176q-110 0 -166 -88t-56 -226q0 -143 57.5 -239t166.5 -96q80 0 121 35zM422 907
l128 -158h-31l-137 89l-137 -89h-31l128 158h80z" />
    <glyph glyph-name="gcircumflex" unicode="&#x11d;" horiz-adv-x="509" 
d="M238 190q-52 0 -94 16q-38 -40 -38 -67q0 -37 39 -37h198q79 0 122.5 -33t43.5 -97q0 -90 -81 -142t-203 -52q-105 0 -165 33t-60 93q0 67 95 103q-59 22 -59 86q0 61 89 121q-90 42 -90 141q0 82 57.5 130.5t147.5 48.5q42 0 86 -14l164 4v-52h-39l-75 4
q27 -18 45.5 -49.5t18.5 -67.5q0 -77 -55.5 -123t-146.5 -46zM336 -1h-228q-25 -26 -25 -71q0 -54 40.5 -85t110.5 -31q83 0 138 30t55 88q0 69 -91 69zM244 219q43 0 65.5 37t22.5 97q0 65 -25 108.5t-72 43.5q-44 0 -66.5 -37.5t-22.5 -96.5q0 -66 25.5 -109t72.5 -43z
M294 765l112 -172h-33l-119 103l-119 -103h-33l112 172h80z" />
    <glyph glyph-name="Gbreve" unicode="&#x11e;" horiz-adv-x="707" 
d="M382 746q-67 0 -105 40t-38 117h31q13 -87 112 -87t112 87h30q0 -77 -37.5 -117t-104.5 -40zM503 62v165q0 41 -14 52t-70 18v31h280v-31q-56 -7 -70 -18t-14 -52v-166q-106 -71 -246 -71q-156 0 -247 98t-91 247q0 171 97.5 274t249.5 103q134 0 221 -57v-155h-32
q-35 176 -187 176q-110 0 -166 -88t-56 -226q0 -143 57.5 -239t166.5 -96q80 0 121 35z" />
    <glyph glyph-name="gbreve" unicode="&#x11f;" horiz-adv-x="509" 
d="M238 190q-52 0 -94 16q-38 -40 -38 -67q0 -37 39 -37h198q79 0 122.5 -33t43.5 -97q0 -90 -81 -142t-203 -52q-105 0 -165 33t-60 93q0 67 95 103q-59 22 -59 86q0 61 89 121q-90 42 -90 141q0 82 57.5 130.5t147.5 48.5q42 0 86 -14l164 4v-52h-39l-75 4
q27 -18 45.5 -49.5t18.5 -67.5q0 -77 -55.5 -123t-146.5 -46zM336 -1h-228q-25 -26 -25 -71q0 -54 40.5 -85t110.5 -31q83 0 138 30t55 88q0 69 -91 69zM244 219q43 0 65.5 37t22.5 97q0 65 -25 108.5t-72 43.5q-44 0 -66.5 -37.5t-22.5 -96.5q0 -66 25.5 -109t72.5 -43z
M255 596q-64 0 -97.5 41t-33.5 120h33q8 -91 98 -91q89 0 97 91h33q0 -79 -33.5 -120t-96.5 -41z" />
    <glyph glyph-name="Gdotaccent" unicode="&#x120;" horiz-adv-x="707" 
d="M381 753q-30 0 -50.5 20.5t-20.5 50.5q0 29 20.5 49.5t50.5 20.5q31 0 51.5 -20.5t20.5 -49.5q0 -30 -20.5 -50.5t-51.5 -20.5zM503 62v165q0 41 -14 52t-70 18v31h280v-31q-56 -7 -70 -18t-14 -52v-166q-106 -71 -246 -71q-156 0 -247 98t-91 247q0 171 97.5 274
t249.5 103q134 0 221 -57v-155h-32q-35 176 -187 176q-110 0 -166 -88t-56 -226q0 -143 57.5 -239t166.5 -96q80 0 121 35z" />
    <glyph glyph-name="gdotaccent" unicode="&#x121;" horiz-adv-x="509" 
d="M238 190q-52 0 -94 16q-38 -40 -38 -67q0 -37 39 -37h198q79 0 122.5 -33t43.5 -97q0 -90 -81 -142t-203 -52q-105 0 -165 33t-60 93q0 67 95 103q-59 22 -59 86q0 61 89 121q-90 42 -90 141q0 82 57.5 130.5t147.5 48.5q42 0 86 -14l164 4v-52h-39l-75 4
q27 -18 45.5 -49.5t18.5 -67.5q0 -77 -55.5 -123t-146.5 -46zM336 -1h-228q-25 -26 -25 -71q0 -54 40.5 -85t110.5 -31q83 0 138 30t55 88q0 69 -91 69zM244 219q43 0 65.5 37t22.5 97q0 65 -25 108.5t-72 43.5q-44 0 -66.5 -37.5t-22.5 -96.5q0 -66 25.5 -109t72.5 -43z
M254 605q-30 0 -50.5 21t-20.5 50t20.5 50t50.5 21q31 0 51.5 -21t20.5 -50t-20.5 -50t-51.5 -21z" />
    <glyph glyph-name="Gcommaaccent" unicode="&#x122;" horiz-adv-x="707" 
d="M400 -150h-47q-42 8 -42 51q0 25 17.5 40t46.5 15q36 0 56.5 -22.5t20.5 -57.5q0 -48 -33 -77t-98 -29v26q37 0 58 16t21 38zM503 62v165q0 41 -14 52t-70 18v31h280v-31q-56 -7 -70 -18t-14 -52v-166q-106 -71 -246 -71q-156 0 -247 98t-91 247q0 171 97.5 274
t249.5 103q134 0 221 -57v-155h-32q-35 176 -187 176q-110 0 -166 -88t-56 -226q0 -143 57.5 -239t166.5 -96q80 0 121 35z" />
    <glyph glyph-name="gcommaaccent" unicode="&#x123;" horiz-adv-x="509" 
d="M238 190q-52 0 -94 16q-38 -40 -38 -67q0 -37 39 -37h198q79 0 122.5 -33t43.5 -97q0 -90 -81 -142t-203 -52q-105 0 -165 33t-60 93q0 67 95 103q-59 22 -59 86q0 61 89 121q-90 42 -90 141q0 82 57.5 130.5t147.5 48.5q42 0 86 -14l164 4v-52h-39l-75 4
q27 -18 45.5 -49.5t18.5 -67.5q0 -77 -55.5 -123t-146.5 -46zM336 -1h-228q-25 -26 -25 -71q0 -54 40.5 -85t110.5 -31q83 0 138 30t55 88q0 69 -91 69zM244 219q43 0 65.5 37t22.5 97q0 65 -25 108.5t-72 43.5q-44 0 -66.5 -37.5t-22.5 -96.5q0 -66 25.5 -109t72.5 -43z
M236 709h47q42 -8 42 -50q0 -25 -17.5 -40t-46.5 -15q-36 0 -56.5 22t-20.5 57q0 48 33 77t98 29v-25q-37 0 -58 -16t-21 -39z" />
    <glyph glyph-name="Hcircumflex" unicode="&#x124;" horiz-adv-x="788" 
d="M230 601v-219h328v219q0 41 -14.5 52.5t-69.5 18.5v30h286v-30q-55 -7 -69.5 -18.5t-14.5 -52.5v-500q0 -41 14.5 -52.5t69.5 -18.5v-30h-286v30q55 7 69.5 18.5t14.5 52.5v240h-328v-240q0 -41 14.5 -52.5t69.5 -18.5v-30h-286v30q55 7 69.5 18.5t14.5 52.5v500
q0 41 -14.5 52.5t-69.5 18.5v30h286v-30q-55 -7 -69.5 -18.5t-14.5 -52.5zM433 907l128 -158h-31l-137 89l-137 -89h-31l128 158h80z" />
    <glyph glyph-name="hcircumflex" unicode="&#x125;" horiz-adv-x="595" 
d="M84 76v609l-63 34v15l159 49h16v-345q85 96 183 96q139 0 139 -164v-294q0 -27 13.5 -36t52.5 -11v-29h-244v29q39 2 52.5 11t13.5 36v292q0 97 -84 97q-61 0 -126 -52v-337q0 -27 13 -36t52 -11v-29h-243v29q39 2 52.5 11t13.5 36zM332 960l128 -158h-31l-137 89
l-137 -89h-31l128 158h80z" />
    <glyph glyph-name="Hbar" unicode="&#x126;" horiz-adv-x="808" 
d="M240 601v-63h328v63q0 41 -14.5 52.5t-69.5 18.5v30h286v-30q-55 -7 -69.5 -18.5t-14.5 -52.5v-63h84v-40h-84v-397q0 -41 14.5 -52.5t69.5 -18.5v-30h-286v30q55 7 69.5 18.5t14.5 52.5v240h-328v-240q0 -41 14.5 -52.5t69.5 -18.5v-30h-286v30q55 7 69.5 18.5
t14.5 52.5v397h-84v40h84v63q0 41 -14.5 52.5t-69.5 18.5v30h286v-30q-55 -7 -69.5 -18.5t-14.5 -52.5zM240 382h328v116h-328v-116z" />
    <glyph glyph-name="hbar" unicode="&#x127;" horiz-adv-x="595" 
d="M84 76v518h-63v37h63v54l-63 34v15l159 49h16v-152h132v-37h-132v-156q85 96 183 96q139 0 139 -164v-294q0 -27 13.5 -36t52.5 -11v-29h-244v29q39 2 52.5 11t13.5 36v292q0 97 -84 97q-61 0 -126 -52v-337q0 -27 13 -36t52 -11v-29h-243v29q39 2 52.5 11t13.5 36z" />
    <glyph glyph-name="Itilde" unicode="&#x128;" horiz-adv-x="342" 
d="M230 601v-500q0 -41 14.5 -52.5t69.5 -18.5v-30h-286v30q55 7 69.5 18.5t14.5 52.5v500q0 41 -14.5 52.5t-69.5 18.5v30h286v-30q-55 -7 -69.5 -18.5t-14.5 -52.5zM235 747q-27 0 -69.5 30t-61.5 30q-38 0 -67 -56l-20 12q25 68 47 94.5t55 26.5q27 0 69.5 -30t61.5 -30
q36 0 67 58l20 -13q-26 -68 -47.5 -95t-54.5 -27z" />
    <glyph glyph-name="itilde" unicode="&#x129;" horiz-adv-x="280" 
d="M193 601q-22 0 -60.5 28.5t-56.5 28.5q-20 0 -33 -11.5t-30 -42.5l-24 12q25 69 44.5 94.5t53.5 25.5q25 0 62.5 -28t54.5 -28q20 0 33 11.5t30 42.5l24 -12q-26 -70 -45 -95.5t-53 -25.5zM199 534v-458q0 -27 13.5 -36t52.5 -11v-29h-244v29q39 2 52.5 11t13.5 36v357
l-63 35v14l159 52h16z" />
    <glyph glyph-name="Imacron" unicode="&#x12a;" horiz-adv-x="342" 
d="M230 601v-500q0 -41 14.5 -52.5t69.5 -18.5v-30h-286v30q55 7 69.5 18.5t14.5 52.5v500q0 41 -14.5 52.5t-69.5 18.5v30h286v-30q-55 -7 -69.5 -18.5t-14.5 -52.5zM28 768v58h284v-58h-284z" />
    <glyph glyph-name="imacron" unicode="&#x12b;" horiz-adv-x="280" 
d="M199 534v-458q0 -27 13.5 -36t52.5 -11v-29h-244v29q39 2 52.5 11t13.5 36v357l-63 35v14l159 52h16zM28 624v57h223v-57h-223z" />
    <glyph glyph-name="Ibreve" unicode="&#x12c;" horiz-adv-x="342" 
d="M230 601v-500q0 -41 14.5 -52.5t69.5 -18.5v-30h-286v30q55 7 69.5 18.5t14.5 52.5v500q0 41 -14.5 52.5t-69.5 18.5v30h286v-30q-55 -7 -69.5 -18.5t-14.5 -52.5zM173 745q-62 0 -97.5 40t-35.5 118h29q12 -88 104 -88t104 88h28q0 -78 -35 -118t-97 -40z" />
    <glyph glyph-name="ibreve" unicode="&#x12d;" horiz-adv-x="280" 
d="M199 534v-458q0 -27 13.5 -36t52.5 -11v-29h-244v29q39 2 52.5 11t13.5 36v357l-63 35v14l159 52h16zM144 596q-122 0 -122 161h31q8 -91 91 -91t90 91h31q0 -79 -31 -120t-90 -41z" />
    <glyph glyph-name="Iogonek" unicode="&#x12e;" horiz-adv-x="342" 
d="M230 601v-500q0 -41 14.5 -52.5t69.5 -18.5v-30h-85q-91 -44 -91 -108q0 -52 49 -52q39 0 80 34l11 -13q-57 -72 -127 -72q-39 0 -63 22.5t-24 58.5q0 77 122 130h-158v30q55 7 69.5 18.5t14.5 52.5v500q0 41 -14.5 52.5t-69.5 18.5v30h286v-30q-55 -7 -69.5 -18.5
t-14.5 -52.5z" />
    <glyph glyph-name="iogonek" unicode="&#x12f;" horiz-adv-x="280" 
d="M199 534v-458q0 -27 13.5 -36t52.5 -11v-29h-70q-91 -44 -91 -108q0 -52 49 -52q39 0 80 34l11 -13q-57 -72 -127 -72q-39 0 -63 22.5t-24 58.5q0 77 122 130h-131v29q39 2 52.5 11t13.5 36v357l-63 35v14l159 52h16zM140 605q-30 0 -50.5 20.5t-20.5 49.5
q0 30 20.5 50.5t50.5 20.5t51 -21t21 -50t-21 -49.5t-51 -20.5z" />
    <glyph glyph-name="Idotaccent" unicode="&#x130;" horiz-adv-x="342" 
d="M230 601v-500q0 -41 14.5 -52.5t69.5 -18.5v-30h-286v30q55 7 69.5 18.5t14.5 52.5v500q0 41 -14.5 52.5t-69.5 18.5v30h286v-30q-55 -7 -69.5 -18.5t-14.5 -52.5zM170 753q-30 0 -50.5 20.5t-20.5 50.5q0 29 20.5 49.5t50.5 20.5q31 0 51.5 -20.5t20.5 -49.5
q0 -30 -20.5 -50.5t-51.5 -20.5z" />
    <glyph glyph-name="dotlessi" unicode="&#x131;" horiz-adv-x="280" 
d="M199 534v-458q0 -27 13.5 -36t52.5 -11v-29h-244v29q39 2 52.5 11t13.5 36v357l-63 35v14l159 52h16z" />
    <glyph glyph-name="IJ" unicode="&#x132;" horiz-adv-x="842" 
d="M230 601v-500q0 -41 14.5 -52.5t69.5 -18.5v-30h-286v30q55 7 69.5 18.5t14.5 52.5v500q0 41 -14.5 52.5t-69.5 18.5v30h286v-30q-55 -7 -69.5 -18.5t-14.5 -52.5zM622 167v434q0 41 -14.5 52.5t-69.5 18.5v30h286v-30q-55 -7 -69.5 -18.5t-14.5 -52.5v-395
q0 -108 -56 -162t-159 -54q-89 0 -140.5 34t-51.5 97q0 44 33 70h81q-5 -30 -5 -55q0 -115 89 -115q91 0 91 146z" />
    <glyph glyph-name="ij" unicode="&#x133;" horiz-adv-x="537" 
d="M199 534v-458q0 -27 13.5 -36t52.5 -11v-29h-244v29q39 2 52.5 11t13.5 36v357l-63 35v14l159 52h16zM140 605q-30 0 -50.5 20.5t-20.5 49.5q0 30 20.5 50.5t50.5 20.5t51 -21t21 -50t-21 -49.5t-51 -20.5zM355 433l-63 35v14l159 52h16v-445q0 -69 -7.5 -103.5
t-28.5 -68.5q-38 -61 -134 -138l-16 13l41 71q15 26 22.5 58.5t9 59t1.5 74.5v378zM407 605q-30 0 -50.5 20.5t-20.5 49.5q0 30 20.5 50.5t50.5 20.5q31 0 51.5 -20.5t20.5 -50.5q0 -29 -20.5 -49.5t-51.5 -20.5z" />
    <glyph glyph-name="Jcircumflex" unicode="&#x134;" horiz-adv-x="503" 
d="M283 167v434q0 41 -14.5 52.5t-69.5 18.5v30h286v-30q-55 -7 -69.5 -18.5t-14.5 -52.5v-395q0 -108 -56 -162t-159 -54q-89 0 -140.5 34t-51.5 97q0 44 33 70h81q-5 -30 -5 -55q0 -115 89 -115q91 0 91 146zM381 907l128 -158h-31l-137 89l-137 -89h-31l128 158h80z" />
    <glyph glyph-name="jcircumflex" unicode="&#x135;" horiz-adv-x="257" 
d="M75 433l-63 35v14l159 52h16v-445q0 -69 -7.5 -103.5t-28.5 -68.5q-38 -61 -134 -138l-16 13l41 71q15 26 22.5 58.5t9 59t1.5 74.5v378zM162 765l102 -173h-30l-108 104l-108 -104h-29l101 173h72z" />
    <glyph glyph-name="Kcommaaccent" unicode="&#x136;" horiz-adv-x="686" 
d="M375 -150h-47q-42 8 -42 51q0 25 17.5 40t46.5 15q36 0 56.5 -22.5t20.5 -57.5q0 -48 -33 -77t-98 -29v26q37 0 58 16t21 38zM345 397l221 -290q36 -47 57.5 -61t62.5 -16v-30h-166q-39 30 -86 93l-191 253l249 261q23 23 23 39q0 13 -14.5 17.5t-62.5 8.5v30h216v-30
q-31 -2 -48.5 -12t-43.5 -36zM230 601v-500q0 -41 14.5 -52.5t69.5 -18.5v-30h-286v30q55 7 69.5 18.5t14.5 52.5v500q0 41 -14.5 52.5t-69.5 18.5v30h286v-30q-55 -7 -69.5 -18.5t-14.5 -52.5z" />
    <glyph glyph-name="kcommaaccent" unicode="&#x137;" horiz-adv-x="556" 
d="M317 -150h-47q-42 8 -42 51q0 25 17.5 40t46.5 15q36 0 56.5 -22.5t20.5 -57.5q0 -48 -33 -77t-98 -29v26q37 0 58 16t21 38zM208 285l159 145q27 24 27 39q0 13 -13 17.5t-53 8.5v29h205v-29q-51 -11 -80 -37l-144 -132l247 -305v-21h-122zM85 76v609l-63 34v15l158 49
h17v-707q0 -27 13.5 -36t52.5 -11v-29h-244v29q39 2 52.5 11t13.5 36z" />
    <glyph glyph-name="kgreenlandic" unicode="&#x138;" horiz-adv-x="558" 
d="M210 285l159 145q27 24 27 39q0 13 -13 17.5t-53 8.5v29h205v-29q-51 -11 -80 -37l-143 -132l246 -305v-21h-122zM87 76v357l-63 35v14l159 52h16v-458q0 -27 13.5 -36t52.5 -11v-29h-244v29q39 2 52.5 11t13.5 36z" />
    <glyph glyph-name="Lacute" unicode="&#x139;" horiz-adv-x="596" 
d="M220 898h122v-6l-150 -143h-26zM230 601v-497q0 -39 21 -53.5t72 -14.5h52q56 0 90 36t86 133h29l-33 -205h-519v30q55 7 69.5 18.5t14.5 52.5v500q0 41 -14.5 52.5t-69.5 18.5v30h286v-30q-55 -7 -69.5 -18.5t-14.5 -52.5z" />
    <glyph glyph-name="lacute" unicode="&#x13a;" horiz-adv-x="278" 
d="M159 945h122v-6l-150 -143h-26zM197 783v-707q0 -27 13.5 -36t52.5 -11v-29h-244v29q39 2 52.5 11t13.5 36v609l-63 34v15l158 49h17z" />
    <glyph glyph-name="Lcommaaccent" unicode="&#x13b;" horiz-adv-x="596" 
d="M322 -150h-47q-42 8 -42 51q0 25 17.5 40t46.5 15q36 0 56.5 -22.5t20.5 -57.5q0 -48 -33 -77t-98 -29v26q37 0 58 16t21 38zM230 601v-497q0 -39 21 -53.5t72 -14.5h52q56 0 90 36t86 133h29l-33 -205h-519v30q55 7 69.5 18.5t14.5 52.5v500q0 41 -14.5 52.5t-69.5 18.5
v30h286v-30q-55 -7 -69.5 -18.5t-14.5 -52.5z" />
    <glyph glyph-name="lcommaaccent" unicode="&#x13c;" horiz-adv-x="278" 
d="M159 -150h-47q-42 8 -42 51q0 25 17.5 40t46.5 15q36 0 56.5 -22.5t20.5 -57.5q0 -48 -33 -77t-98 -29v26q37 0 58 16t21 38zM197 783v-707q0 -27 13.5 -36t52.5 -11v-29h-244v29q39 2 52.5 11t13.5 36v609l-63 34v15l158 49h17z" />
    <glyph glyph-name="Lcaron" unicode="&#x13d;" horiz-adv-x="596" 
d="M513 696l-107 -199h-17l18 205h106v-6zM230 601v-497q0 -39 21 -53.5t72 -14.5h52q56 0 90 36t86 133h29l-33 -205h-519v30q55 7 69.5 18.5t14.5 52.5v500q0 41 -14.5 52.5t-69.5 18.5v30h286v-30q-55 -7 -69.5 -18.5t-14.5 -52.5z" />
    <glyph glyph-name="lcaron" unicode="&#x13e;" horiz-adv-x="278" 
d="M361 776l-107 -199h-17l18 205h106v-6zM197 783v-707q0 -27 13.5 -36t52.5 -11v-29h-244v29q39 2 52.5 11t13.5 36v609l-63 34v15l158 49h17z" />
    <glyph glyph-name="Ldot" unicode="&#x13f;" horiz-adv-x="596" 
d="M230 601v-497q0 -39 21 -53.5t72 -14.5h52q56 0 90 36t86 133h29l-33 -205h-519v30q55 7 69.5 18.5t14.5 52.5v500q0 41 -14.5 52.5t-69.5 18.5v30h286v-30q-55 -7 -69.5 -18.5t-14.5 -52.5zM413 391q0 32 22 54t54 22q31 0 53.5 -22t22.5 -54q0 -31 -22.5 -53.5
t-53.5 -22.5q-32 0 -54 22t-22 54z" />
    <glyph glyph-name="ldot" unicode="&#x140;" horiz-adv-x="342" 
d="M197 783v-707q0 -27 13.5 -36t52.5 -11v-29h-244v29q39 2 52.5 11t13.5 36v609l-63 34v15l158 49h17zM238 374q0 31 21 52t52 21q29 0 50.5 -21.5t21.5 -51.5t-21.5 -51t-50.5 -21q-31 0 -52 21t-21 51z" />
    <glyph glyph-name="Lslash" unicode="&#x141;" horiz-adv-x="596" 
d="M230 601v-228l151 65v-42l-151 -66v-226q0 -39 21 -53.5t72 -14.5h52q56 0 90 36t86 133h29l-33 -205h-519v30q55 7 69.5 18.5t14.5 52.5v187l-75 -33v42l75 32v272q0 41 -14.5 52.5t-69.5 18.5v30h286v-30q-55 -7 -69.5 -18.5t-14.5 -52.5z" />
    <glyph glyph-name="lslash" unicode="&#x142;" horiz-adv-x="295" 
d="M202 783v-313l84 51v-43l-84 -51v-351q0 -27 13.5 -36t52.5 -11v-29h-244v29q39 2 52.5 11t13.5 36v297l-78 -45v43l78 45v269l-63 34v15l158 49h17z" />
    <glyph glyph-name="Nacute" unicode="&#x143;" horiz-adv-x="742" 
d="M398 898h122v-6l-150 -143h-26zM595 199v401q0 41 -17.5 53.5t-81.5 18.5v30h229v-30q-56 -7 -70.5 -19t-14.5 -53v-603h-36l-445 568v-463q0 -41 17.5 -53.5t81.5 -18.5v-30h-229v30q56 7 70.5 19t14.5 53v508q-27 35 -42.5 47.5t-43.5 14.5v30h177z" />
    <glyph glyph-name="nacute" unicode="&#x144;" horiz-adv-x="598" 
d="M331 762h118v-6l-151 -162h-25zM409 76v292q0 97 -84 97q-61 0 -126 -52v-337q0 -27 13.5 -36t51.5 -11v-29h-243v29q39 2 52.5 11t13.5 36v357l-63 35v14l162 52h17l-4 -96q85 96 183 96q139 0 139 -161v-297q0 -27 13.5 -36t52.5 -11v-29h-244v29q39 2 52.5 11t13.5 36
z" />
    <glyph glyph-name="Ncommaaccent" unicode="&#x145;" horiz-adv-x="742" 
d="M407 -150h-47q-42 8 -42 51q0 25 17.5 40t46.5 15q36 0 56.5 -22.5t20.5 -57.5q0 -48 -33 -77t-98 -29v26q37 0 58 16t21 38zM595 199v401q0 41 -17.5 53.5t-81.5 18.5v30h229v-30q-56 -7 -70.5 -19t-14.5 -53v-603h-36l-445 568v-463q0 -41 17.5 -53.5t81.5 -18.5v-30
h-229v30q56 7 70.5 19t14.5 53v508q-27 35 -42.5 47.5t-43.5 14.5v30h177z" />
    <glyph glyph-name="ncommaaccent" unicode="&#x146;" horiz-adv-x="598" 
d="M328 -150h-47q-42 8 -42 51q0 25 17.5 40t46.5 15q36 0 56.5 -22.5t20.5 -57.5q0 -48 -33 -77t-98 -29v26q37 0 58 16t21 38zM409 76v292q0 97 -84 97q-61 0 -126 -52v-337q0 -27 13.5 -36t51.5 -11v-29h-243v29q39 2 52.5 11t13.5 36v357l-63 35v14l162 52h17l-4 -96
q85 96 183 96q139 0 139 -161v-297q0 -27 13.5 -36t52.5 -11v-29h-244v29q39 2 52.5 11t13.5 36z" />
    <glyph glyph-name="Ncaron" unicode="&#x147;" horiz-adv-x="742" 
d="M557 907l-128 -158h-80l-128 158h31l137 -89l137 89h31zM595 199v401q0 41 -17.5 53.5t-81.5 18.5v30h229v-30q-56 -7 -70.5 -19t-14.5 -53v-603h-36l-445 568v-463q0 -41 17.5 -53.5t81.5 -18.5v-30h-229v30q56 7 70.5 19t14.5 53v508q-27 35 -42.5 47.5t-43.5 14.5v30
h177z" />
    <glyph glyph-name="ncaron" unicode="&#x148;" horiz-adv-x="598" 
d="M461 767l-112 -172h-80l-112 172h33l119 -103l119 103h33zM409 76v292q0 97 -84 97q-61 0 -126 -52v-337q0 -27 13.5 -36t51.5 -11v-29h-243v29q39 2 52.5 11t13.5 36v357l-63 35v14l162 52h17l-4 -96q85 96 183 96q139 0 139 -161v-297q0 -27 13.5 -36t52.5 -11v-29
h-244v29q39 2 52.5 11t13.5 36z" />
    <glyph glyph-name="Eng" unicode="&#x14a;" horiz-adv-x="742" 
d="M550 66l-391 499v-463q0 -41 17.5 -53.5t81.5 -18.5v-30h-229v30q56 7 70.5 19t14.5 53v508q-27 35 -42.5 47.5t-43.5 14.5v30h179l388 -501v399q0 41 -17.5 53.5t-81.5 18.5v30h229v-30q-56 -7 -70.5 -19t-14.5 -53v-511q0 -68 -7 -102t-27 -69q-23 -36 -50 -62t-72 -58
l-15 13l26 38q55 85 55 217z" />
    <glyph glyph-name="eng" unicode="&#x14b;" horiz-adv-x="590" 
d="M409 55v313q0 97 -84 97q-61 0 -126 -52v-337q0 -27 13.5 -36t51.5 -11v-29h-243v29q39 2 52.5 11t13.5 36v357l-63 35v14l162 52h17l-4 -96q85 96 183 96q139 0 139 -161v-284q0 -68 -7.5 -102.5t-28.5 -69.5q-37 -60 -135 -138l-15 13l41 71q15 26 22.5 58.5t9 59
t1.5 74.5z" />
    <glyph glyph-name="Omacron" unicode="&#x14c;" horiz-adv-x="708" 
d="M212 768v58h284v-58h-284zM358 27q90 0 140 92.5t50 228.5q0 85 -20 156.5t-66.5 121t-112.5 49.5q-91 0 -141 -92.5t-50 -228.5q0 -85 20.5 -157t67 -121t112.5 -49zM349 -10q-147 0 -232.5 101.5t-85.5 245.5q0 169 93 272t234 103q147 0 232.5 -101.5t85.5 -245.5
q0 -169 -93 -272t-234 -103z" />
    <glyph glyph-name="omacron" unicode="&#x14d;" horiz-adv-x="537" 
d="M140 623v58h259v-58h-259zM271 23q60 0 92.5 60t32.5 162q0 112 -33 184t-97 72q-60 0 -92 -60t-32 -162q0 -111 33 -183.5t96 -72.5zM266 -10q-109 0 -176 71.5t-67 188.5q0 126 70.5 205t177.5 79q109 0 176 -71.5t67 -187.5q0 -127 -70.5 -206t-177.5 -79z" />
    <glyph glyph-name="Obreve" unicode="&#x14e;" horiz-adv-x="708" 
d="M355 746q-67 0 -105 40t-38 117h31q13 -87 112 -87t112 87h30q0 -77 -37.5 -117t-104.5 -40zM358 27q90 0 140 92.5t50 228.5q0 85 -20 156.5t-66.5 121t-112.5 49.5q-91 0 -141 -92.5t-50 -228.5q0 -85 20.5 -157t67 -121t112.5 -49zM349 -10q-147 0 -232.5 101.5
t-85.5 245.5q0 169 93 272t234 103q147 0 232.5 -101.5t85.5 -245.5q0 -169 -93 -272t-234 -103z" />
    <glyph glyph-name="obreve" unicode="&#x14f;" horiz-adv-x="537" 
d="M271 23q60 0 92.5 60t32.5 162q0 112 -33 184t-97 72q-60 0 -92 -60t-32 -162q0 -111 33 -183.5t96 -72.5zM266 -10q-109 0 -176 71.5t-67 188.5q0 126 70.5 205t177.5 79q109 0 176 -71.5t67 -187.5q0 -127 -70.5 -206t-177.5 -79zM270 596q-64 0 -97.5 41t-33.5 120h33
q8 -91 98 -91q89 0 97 91h33q0 -79 -33.5 -120t-96.5 -41z" />
    <glyph glyph-name="Ohungarumlaut" unicode="&#x150;" horiz-adv-x="708" 
d="M358 27q90 0 140 92.5t50 228.5q0 85 -20 156.5t-66.5 121t-112.5 49.5q-91 0 -141 -92.5t-50 -228.5q0 -85 20.5 -157t67 -121t112.5 -49zM349 -10q-147 0 -232.5 101.5t-85.5 245.5q0 169 93 272t234 103q147 0 232.5 -101.5t85.5 -245.5q0 -169 -93 -272t-234 -103z
M317 898h109v-6l-140 -143h-27zM468 898h110v-6l-140 -143h-27z" />
    <glyph glyph-name="ohungarumlaut" unicode="&#x151;" horiz-adv-x="537" 
d="M225 762h109v-6l-141 -162h-26zM376 762h110v-6l-142 -162h-25zM271 23q60 0 92.5 60t32.5 162q0 112 -33 184t-97 72q-60 0 -92 -60t-32 -162q0 -111 33 -183.5t96 -72.5zM266 -10q-109 0 -176 71.5t-67 188.5q0 126 70.5 205t177.5 79q109 0 176 -71.5t67 -187.5
q0 -127 -70.5 -206t-177.5 -79z" />
    <glyph glyph-name="OE" unicode="&#x152;" horiz-adv-x="1003" 
d="M492 666h-66q-120 0 -193.5 -81t-73.5 -229q0 -138 73 -229t216 -91h44v630zM952 0h-525q-192 0 -294 95.5t-102 238.5q0 171 109.5 269.5t277.5 98.5h528v-173h-24q-36 82 -66 109.5t-85 27.5h-162v-285h145q32 0 46.5 21t23.5 70h31v-219h-31q-9 49 -23.5 69.5
t-46.5 20.5h-145v-239q0 -39 21.5 -53.5t72.5 -14.5h79q53 0 86 31.5t86 121.5h28z" />
    <glyph glyph-name="oe" unicode="&#x153;" horiz-adv-x="846" 
d="M272 534q117 0 185 -94q70 94 171 94q93 0 144 -56.5t51 -146.5v-21h-329q-4 -112 44.5 -176t126.5 -64q95 0 150 85l14 -7q-19 -72 -72.5 -115t-132.5 -43q-55 0 -101.5 25t-76.5 67q-71 -92 -179 -92q-109 0 -176 71.5t-67 188.5q0 126 70.5 205t177.5 79zM272 23
q60 0 92 60t32 162q0 112 -32.5 184t-96.5 72q-60 0 -92.5 -60t-32.5 -162q0 -111 33 -183.5t97 -72.5zM619 500q-52 0 -84 -43.5t-39 -114.5h223q0 158 -100 158z" />
    <glyph glyph-name="Racute" unicode="&#x154;" horiz-adv-x="694" 
d="M286 665h-56v-324h59q164 0 164 168q0 70 -42.5 113t-124.5 43zM230 304v-203q0 -41 14.5 -52.5t69.5 -18.5v-30h-286v30q55 7 69.5 18.5t14.5 52.5v500q0 41 -14.5 52.5t-69.5 18.5v30h290q124 0 191 -52.5t67 -140.5q0 -77 -52 -125t-119 -62l159 -208q35 -47 62.5 -65
t67.5 -19v-30h-168q-33 23 -83 93l-152 211h-61zM339 898h122v-6l-150 -143h-26z" />
    <glyph glyph-name="racute" unicode="&#x155;" horiz-adv-x="385" 
d="M256 762h118v-6l-151 -162h-25zM199 364v-284q0 -29 18 -38.5t69 -12.5v-29h-265v29q39 2 52.5 11t13.5 36v357l-63 35v14l162 52h17l-4 -144q42 84 68.5 114t67.5 30q27 0 41 -16v-90h-17q-54 0 -88.5 -11.5t-71.5 -52.5z" />
    <glyph glyph-name="Rcommaaccent" unicode="&#x156;" horiz-adv-x="694" 
d="M384 -150h-47q-42 8 -42 51q0 25 17.5 40t46.5 15q36 0 56.5 -22.5t20.5 -57.5q0 -48 -33 -77t-98 -29v26q37 0 58 16t21 38zM286 665h-56v-324h59q164 0 164 168q0 70 -42.5 113t-124.5 43zM230 304v-203q0 -41 14.5 -52.5t69.5 -18.5v-30h-286v30q55 7 69.5 18.5
t14.5 52.5v500q0 41 -14.5 52.5t-69.5 18.5v30h290q124 0 191 -52.5t67 -140.5q0 -77 -52 -125t-119 -62l159 -208q35 -47 62.5 -65t67.5 -19v-30h-168q-33 23 -83 93l-152 211h-61z" />
    <glyph glyph-name="rcommaaccent" unicode="&#x157;" horiz-adv-x="385" 
d="M170 -150h-47q-42 8 -42 51q0 25 17.5 40t46.5 15q36 0 56.5 -22.5t20.5 -57.5q0 -48 -33 -77t-98 -29v26q37 0 58 16t21 38zM199 364v-284q0 -29 18 -38.5t69 -12.5v-29h-265v29q39 2 52.5 11t13.5 36v357l-63 35v14l162 52h17l-4 -144q42 84 68.5 114t67.5 30
q27 0 41 -16v-90h-17q-54 0 -88.5 -11.5t-71.5 -52.5z" />
    <glyph glyph-name="Rcaron" unicode="&#x158;" horiz-adv-x="694" 
d="M489 907l-128 -158h-80l-128 158h31l137 -89l137 89h31zM286 665h-56v-324h59q164 0 164 168q0 70 -42.5 113t-124.5 43zM230 304v-203q0 -41 14.5 -52.5t69.5 -18.5v-30h-286v30q55 7 69.5 18.5t14.5 52.5v500q0 41 -14.5 52.5t-69.5 18.5v30h290q124 0 191 -52.5
t67 -140.5q0 -77 -52 -125t-119 -62l159 -208q35 -47 62.5 -65t67.5 -19v-30h-168q-33 23 -83 93l-152 211h-61z" />
    <glyph glyph-name="rcaron" unicode="&#x159;" horiz-adv-x="385" 
d="M387 767l-112 -172h-80l-112 172h33l119 -103l119 103h33zM199 364v-284q0 -29 18 -38.5t69 -12.5v-29h-265v29q39 2 52.5 11t13.5 36v357l-63 35v14l162 52h17l-4 -144q42 84 68.5 114t67.5 30q27 0 41 -16v-90h-17q-54 0 -88.5 -11.5t-71.5 -52.5z" />
    <glyph glyph-name="Sacute" unicode="&#x15a;" horiz-adv-x="533" 
d="M253 -10q-67 0 -124 18t-91 47l-7 171h35q18 -96 65.5 -148t121.5 -52q65 0 103 34t38 89q0 57 -35.5 89t-134.5 71q-93 37 -139.5 82t-46.5 126q0 85 60 140t160 55q123 0 204 -58v-149h-33q-12 83 -55.5 127t-115.5 44q-55 0 -87.5 -31.5t-32.5 -81.5q0 -54 30.5 -83.5
t115.5 -62.5q111 -44 161 -92t50 -131q0 -95 -69 -149.5t-173 -54.5zM294 898h122v-6l-150 -143h-26z" />
    <glyph glyph-name="sacute" unicode="&#x15b;" horiz-adv-x="442" 
d="M249 762h118v-6l-151 -162h-25zM216 -10q-108 0 -174 49l-6 138h32q19 -71 57 -113.5t93 -42.5q45 0 73 22.5t28 65.5q0 40 -27 62.5t-95 48.5q-82 30 -118 66t-36 99q0 69 47.5 109t126.5 40q89 0 157 -42v-121h-29q-15 60 -47.5 96t-83.5 36q-40 0 -62.5 -21.5
t-22.5 -56.5q0 -37 25 -59t90 -46q84 -30 123.5 -67.5t39.5 -101.5q0 -75 -52 -118t-139 -43z" />
    <glyph glyph-name="Scircumflex" unicode="&#x15c;" horiz-adv-x="533" 
d="M253 -10q-67 0 -124 18t-91 47l-7 171h35q18 -96 65.5 -148t121.5 -52q65 0 103 34t38 89q0 57 -35.5 89t-134.5 71q-93 37 -139.5 82t-46.5 126q0 85 60 140t160 55q123 0 204 -58v-149h-33q-12 83 -55.5 127t-115.5 44q-55 0 -87.5 -31.5t-32.5 -81.5q0 -54 30.5 -83.5
t115.5 -62.5q111 -44 161 -92t50 -131q0 -95 -69 -149.5t-173 -54.5zM314 907l128 -158h-31l-137 89l-137 -89h-31l128 158h80z" />
    <glyph glyph-name="scircumflex" unicode="&#x15d;" horiz-adv-x="442" 
d="M268 765l112 -172h-33l-119 103l-119 -103h-33l112 172h80zM216 -10q-108 0 -174 49l-6 138h32q19 -71 57 -113.5t93 -42.5q45 0 73 22.5t28 65.5q0 40 -27 62.5t-95 48.5q-82 30 -118 66t-36 99q0 69 47.5 109t126.5 40q89 0 157 -42v-121h-29q-15 60 -47.5 96t-83.5 36
q-40 0 -62.5 -21.5t-22.5 -56.5q0 -37 25 -59t90 -46q84 -30 123.5 -67.5t39.5 -101.5q0 -75 -52 -118t-139 -43z" />
    <glyph glyph-name="Scedilla" unicode="&#x15e;" horiz-adv-x="533" 
d="M165 -223l-6 28q53 0 83.5 14.5t30.5 37.5q0 39 -85 42l37 92q-120 8 -187 64l-7 171h35q18 -96 65.5 -148t121.5 -52q65 0 103 34t38 89q0 57 -35.5 89t-134.5 71q-93 37 -139.5 82t-46.5 126q0 85 60 140t160 55q123 0 204 -58v-149h-33q-12 83 -55.5 127t-115.5 44
q-55 0 -87.5 -31.5t-32.5 -81.5q0 -54 30.5 -83.5t115.5 -62.5q111 -44 161 -92t50 -131q0 -95 -69 -149.5t-173 -54.5l-14 -36q102 -2 102 -76q0 -50 -48.5 -75.5t-127.5 -25.5z" />
    <glyph glyph-name="scedilla" unicode="&#x15f;" horiz-adv-x="442" 
d="M120 -223l-6 28q53 0 83.5 14.5t30.5 37.5q0 39 -85 42l37 93q-88 9 -138 47l-6 138h32q19 -71 57 -113.5t93 -42.5q45 0 73 22.5t28 65.5q0 40 -27 62.5t-95 48.5q-82 30 -118 66t-36 99q0 69 47.5 109t126.5 40q89 0 157 -42v-121h-29q-15 60 -47.5 96t-83.5 36
q-40 0 -62.5 -21.5t-22.5 -56.5q0 -37 25 -59t90 -46q84 -30 123.5 -67.5t39.5 -101.5q0 -75 -52 -118t-139 -43h-8l-14 -36q102 -2 102 -76q0 -50 -48.5 -75.5t-127.5 -25.5z" />
    <glyph glyph-name="Scaron" unicode="&#x160;" horiz-adv-x="533" 
d="M253 -10q-67 0 -124 18t-91 47l-7 171h35q18 -96 65.5 -148t121.5 -52q65 0 103 34t38 89q0 57 -35.5 89t-134.5 71q-93 37 -139.5 82t-46.5 126q0 85 60 140t160 55q123 0 204 -58v-149h-33q-12 83 -55.5 127t-115.5 44q-55 0 -87.5 -31.5t-32.5 -81.5q0 -54 30.5 -83.5
t115.5 -62.5q111 -44 161 -92t50 -131q0 -95 -69 -149.5t-173 -54.5zM442 907l-128 -158h-80l-128 158h31l137 -89l137 89h31z" />
    <glyph glyph-name="scaron" unicode="&#x161;" horiz-adv-x="442" 
d="M380 767l-112 -172h-80l-112 172h33l119 -103l119 103h33zM216 -10q-108 0 -174 49l-6 138h32q19 -71 57 -113.5t93 -42.5q45 0 73 22.5t28 65.5q0 40 -27 62.5t-95 48.5q-82 30 -118 66t-36 99q0 69 47.5 109t126.5 40q89 0 157 -42v-121h-29q-15 60 -47.5 96t-83.5 36
q-40 0 -62.5 -21.5t-22.5 -56.5q0 -37 25 -59t90 -46q84 -30 123.5 -67.5t39.5 -101.5q0 -75 -52 -118t-139 -43z" />
    <glyph glyph-name="Tcedilla" unicode="&#x162;" horiz-adv-x="656" 
d="M346 -150h-47q-42 8 -42 51q0 25 17.5 40t46.5 15q36 0 56.5 -22.5t20.5 -57.5q0 -48 -33 -77t-98 -29v26q37 0 58 16t21 38zM29 702h598l15 -219h-26q-48 116 -77 151t-88 35h-64v-571q0 -39 18 -49.5t76 -18.5v-30h-306v30q32 4 45 6.5t27.5 9.5t18.5 19t4 33v571h-65
q-59 0 -88 -35t-76 -151h-27z" />
    <glyph glyph-name="tcedilla" unicode="&#x163;" horiz-adv-x="342" 
d="M191 -150h-47q-42 8 -42 51q0 25 17.5 40t46.5 15q36 0 56.5 -22.5t20.5 -57.5q0 -48 -33 -77t-98 -29v26q37 0 58 16t21 38zM177 651v-127h137v-41h-137v-331q0 -50 19 -73t58 -23t77 28l11 -15q-53 -79 -142 -79q-61 0 -97.5 36t-36.5 114v343h-65v18q90 45 152 150h24
z" />
    <glyph glyph-name="Tcaron" unicode="&#x164;" horiz-adv-x="656" 
d="M496 907l-128 -158h-80l-128 158h31l137 -89l137 89h31zM29 702h598l15 -219h-26q-48 116 -77 151t-88 35h-64v-571q0 -39 18 -49.5t76 -18.5v-30h-306v30q32 4 45 6.5t27.5 9.5t18.5 19t4 33v571h-65q-59 0 -88 -35t-76 -151h-27z" />
    <glyph glyph-name="tcaron" unicode="&#x165;" horiz-adv-x="342" 
d="M349 777l-107 -199h-17l18 205h106v-6zM177 651v-127h137v-41h-137v-331q0 -50 19 -73t58 -23t77 28l11 -15q-53 -79 -142 -79q-61 0 -97.5 36t-36.5 114v343h-65v18q90 45 152 150h24z" />
    <glyph glyph-name="Tbar" unicode="&#x166;" horiz-adv-x="656" 
d="M29 702h598l15 -219h-26q-48 116 -77 151t-88 35h-64v-287h117v-41h-117v-243q0 -39 18 -49.5t76 -18.5v-30h-306v30q32 4 45 6.5t27.5 9.5t18.5 19t4 33v243h-117v41h117v287h-65q-59 0 -88 -35t-76 -151h-27z" />
    <glyph glyph-name="tbar" unicode="&#x167;" horiz-adv-x="357" 
d="M184 651v-127h137v-41h-137v-111h137v-40h-137v-180q0 -50 19 -73t58 -23t77 28l11 -15q-53 -79 -142 -79q-61 0 -97.5 36t-36.5 114v192h-65v40h65v111h-65v18q90 45 152 150h24z" />
    <glyph glyph-name="Utilde" unicode="&#x168;" horiz-adv-x="721" 
d="M451 749q-29 0 -75 29.5t-67 29.5q-40 0 -72 -56l-22 12q28 67 51.5 93.5t58.5 26.5q29 0 75 -29.5t67 -29.5q40 0 72 57l22 -13q-28 -67 -51.5 -93.5t-58.5 -26.5zM212 601v-351q0 -95 43.5 -148t124.5 -53q200 0 200 208v343q0 41 -17 53.5t-80 18.5v30h227v-30
q-55 -7 -70 -19t-15 -53v-361q0 -121 -72 -185t-185 -64q-129 0 -201 63t-72 189v359q0 41 -14.5 52.5t-70.5 18.5v30h287v-30q-56 -7 -70.5 -18.5t-14.5 -52.5z" />
    <glyph glyph-name="utilde" unicode="&#x169;" horiz-adv-x="574" 
d="M493 423v-322q0 -27 7 -35.5t37 -11.5l26 -2v-26l-165 -36h-20l4 95q-43 -45 -83 -70t-90 -25q-140 0 -140 159v269q0 27 -10 38t-41 16l-16 2v27l167 32h16l-5 -114v-252q0 -107 84 -107q52 0 118 48v310q0 27 -9.5 38t-41.5 16l-15 2v27l165 32h16zM345 601
q-29 0 -71 29.5t-63 29.5t-36 -13t-32 -43l-22 12q29 69 50.5 94.5t55.5 25.5q29 0 71 -29.5t63 -29.5t36 13t32 44l22 -12q-29 -69 -50.5 -95t-55.5 -26z" />
    <glyph glyph-name="Umacron" unicode="&#x16a;" horiz-adv-x="721" 
d="M244 768v58h284v-58h-284zM212 601v-351q0 -95 43.5 -148t124.5 -53q200 0 200 208v343q0 41 -17 53.5t-80 18.5v30h227v-30q-55 -7 -70 -19t-15 -53v-361q0 -121 -72 -185t-185 -64q-129 0 -201 63t-72 189v359q0 41 -14.5 52.5t-70.5 18.5v30h287v-30
q-56 -7 -70.5 -18.5t-14.5 -52.5z" />
    <glyph glyph-name="umacron" unicode="&#x16b;" horiz-adv-x="574" 
d="M493 423v-322q0 -27 7 -35.5t37 -11.5l26 -2v-26l-165 -36h-20l4 95q-43 -45 -83 -70t-90 -25q-140 0 -140 159v269q0 27 -10 38t-41 16l-16 2v27l167 32h16l-5 -114v-252q0 -107 84 -107q52 0 118 48v310q0 27 -9.5 38t-41.5 16l-15 2v27l165 32h16zM156 623v58h259v-58
h-259z" />
    <glyph glyph-name="Ubreve" unicode="&#x16c;" horiz-adv-x="721" 
d="M386 746q-67 0 -105 40t-38 117h31q13 -87 112 -87t112 87h30q0 -77 -37.5 -117t-104.5 -40zM212 601v-351q0 -95 43.5 -148t124.5 -53q200 0 200 208v343q0 41 -17 53.5t-80 18.5v30h227v-30q-55 -7 -70 -19t-15 -53v-361q0 -121 -72 -185t-185 -64q-129 0 -201 63
t-72 189v359q0 41 -14.5 52.5t-70.5 18.5v30h287v-30q-56 -7 -70.5 -18.5t-14.5 -52.5z" />
    <glyph glyph-name="ubreve" unicode="&#x16d;" horiz-adv-x="574" 
d="M493 423v-322q0 -27 7 -35.5t37 -11.5l26 -2v-26l-165 -36h-20l4 95q-43 -45 -83 -70t-90 -25q-140 0 -140 159v269q0 27 -10 38t-41 16l-16 2v27l167 32h16l-5 -114v-252q0 -107 84 -107q52 0 118 48v310q0 27 -9.5 38t-41.5 16l-15 2v27l165 32h16zM286 596
q-64 0 -97.5 41t-33.5 120h33q8 -91 98 -91q89 0 97 91h33q0 -79 -33.5 -120t-96.5 -41z" />
    <glyph glyph-name="Uring" unicode="&#x16e;" horiz-adv-x="721" 
d="M212 601v-351q0 -95 43.5 -148t124.5 -53q200 0 200 208v343q0 41 -17 53.5t-80 18.5v30h227v-30q-55 -7 -70 -19t-15 -53v-361q0 -121 -72 -185t-185 -64q-129 0 -201 63t-72 189v359q0 41 -14.5 52.5t-70.5 18.5v30h287v-30q-56 -7 -70.5 -18.5t-14.5 -52.5zM333 822
q0 -25 14 -41t39 -16t39 16t14 41t-14 40.5t-39 15.5t-39 -15.5t-14 -40.5zM296 822q0 38 25.5 63.5t64.5 25.5t64.5 -25.5t25.5 -63.5t-25.5 -64t-64.5 -26t-64.5 26t-25.5 64z" />
    <glyph glyph-name="uring" unicode="&#x16f;" horiz-adv-x="574" 
d="M232 658q0 -25 14 -40.5t39 -15.5t39 15.5t14 40.5t-14 41t-39 16t-39 -16t-14 -41zM195 658q0 38 25.5 64t64.5 26t64.5 -26t25.5 -64t-25.5 -63.5t-64.5 -25.5t-64.5 25.5t-25.5 63.5zM493 423v-322q0 -27 7 -35.5t37 -11.5l26 -2v-26l-165 -36h-20l4 95
q-43 -45 -83 -70t-90 -25q-140 0 -140 159v269q0 27 -10 38t-41 16l-16 2v27l167 32h16l-5 -114v-252q0 -107 84 -107q52 0 118 48v310q0 27 -9.5 38t-41.5 16l-15 2v27l165 32h16z" />
    <glyph glyph-name="Uhungarumlaut" unicode="&#x170;" horiz-adv-x="721" 
d="M212 601v-351q0 -95 43.5 -148t124.5 -53q200 0 200 208v343q0 41 -17 53.5t-80 18.5v30h227v-30q-55 -7 -70 -19t-15 -53v-361q0 -121 -72 -185t-185 -64q-129 0 -201 63t-72 189v359q0 41 -14.5 52.5t-70.5 18.5v30h287v-30q-56 -7 -70.5 -18.5t-14.5 -52.5zM349 898
h109v-6l-140 -143h-27zM500 898h110v-6l-140 -143h-27z" />
    <glyph glyph-name="uhungarumlaut" unicode="&#x171;" horiz-adv-x="574" 
d="M493 423v-322q0 -27 7 -35.5t37 -11.5l26 -2v-26l-165 -36h-20l4 95q-43 -45 -83 -70t-90 -25q-140 0 -140 159v269q0 27 -10 38t-41 16l-16 2v27l167 32h16l-5 -114v-252q0 -107 84 -107q52 0 118 48v310q0 27 -9.5 38t-41.5 16l-15 2v27l165 32h16zM241 762h109v-6
l-141 -162h-26zM392 762h110v-6l-142 -162h-25z" />
    <glyph glyph-name="Uogonek" unicode="&#x172;" horiz-adv-x="721" 
d="M212 601v-351q0 -95 43.5 -148t124.5 -53q200 0 200 208v343q0 41 -17 53.5t-80 18.5v30h227v-30q-55 -7 -70 -19t-15 -53v-361q0 -95 -44.5 -154.5t-120.5 -82.5q-97 -44 -97 -110q0 -52 49 -52q39 0 80 34l11 -13q-57 -72 -127 -72q-39 0 -63 22.5t-24 58.5
q0 72 103 121q-4 0 -12 -0.5t-12 -0.5q-129 0 -201 63t-72 189v359q0 41 -14.5 52.5t-70.5 18.5v30h287v-30q-56 -7 -70.5 -18.5t-14.5 -52.5z" />
    <glyph glyph-name="uogonek" unicode="&#x173;" horiz-adv-x="574" 
d="M493 423v-322q0 -27 7 -35.5t37 -11.5l26 -2v-26q-122 -26 -167.5 -56.5t-45.5 -77.5q0 -52 48 -52q40 0 80 34l11 -13q-57 -72 -126 -72q-39 0 -63.5 22.5t-24.5 59.5q0 39 26.5 66t76.5 51l4 97q-43 -45 -83 -70t-90 -25q-140 0 -140 159v269q0 27 -10 38t-41 16l-16 2
v27l167 32h16l-5 -114v-252q0 -107 84 -107q52 0 118 48v310q0 27 -9.5 38t-41.5 16l-15 2v27l165 32h16z" />
    <glyph glyph-name="Wcircumflex" unicode="&#x174;" horiz-adv-x="939" 
d="M619 -8l-139 416l-149 -416h-35l-232 643q-10 28 -59 37v30h272v-30q-46 -2 -64 -11t-18 -31q0 -4 10 -44l149 -421l108 299l-57 171q-4 13 -13 20.5t-18 10.5t-26 6v30h265v-30q-48 -1 -66.5 -10.5t-18.5 -32.5q0 -13 10 -45l135 -414l140 414q11 29 11 43q0 23 -19 33
t-67 12v30h196v-30q-18 -3 -26 -5.5t-18 -10.5t-14 -21l-223 -643h-34zM525 907l128 -158h-31l-137 89l-137 -89h-31l128 158h80z" />
    <glyph glyph-name="wcircumflex" unicode="&#x175;" horiz-adv-x="803" 
d="M452 765l112 -172h-33l-119 103l-119 -103h-33l112 172h80zM581 140l113 295q5 11 5 25q0 17 -15 24t-51 11v29h165v-29q-26 -7 -35.5 -14t-15.5 -23l-185 -467h-33l-120 332l-130 -332h-32l-191 467q-7 17 -16 24t-35 13v29h238v-29q-35 -4 -49 -10.5t-14 -23.5
q0 -13 5 -26l113 -299l92 241l-30 81q-5 16 -14.5 23.5t-34.5 13.5v29h229v-29q-38 -4 -52.5 -10.5t-14.5 -24.5q0 -8 5 -25z" />
    <glyph glyph-name="Ycircumflex" unicode="&#x176;" horiz-adv-x="641" 
d="M377 278v-180q0 -39 18 -49.5t76 -18.5v-30h-301v30q26 3 36.5 5t25.5 6.5t20 11t9 17.5t4 28v179l-201 358q-17 30 -59 37v30h276v-30q-48 -1 -66 -9t-18 -28q0 -17 19 -50l146 -256l141 254q18 36 18 53q0 19 -18 26.5t-66 9.5v30h199v-30q-42 -8 -59 -37zM381 907
l128 -158h-31l-137 89l-137 -89h-31l128 158h80z" />
    <glyph glyph-name="ycircumflex" unicode="&#x177;" horiz-adv-x="542" 
d="M315 114l119 320q6 18 6 28q0 16 -14 22t-55 11v29h166v-29q-26 -6 -35.5 -13.5t-15.5 -23.5l-216 -558q-24 -62 -51.5 -90.5t-72.5 -28.5q-25 0 -46 13t-28 35v39q34 -9 62 -9q43 0 69 16.5t42 60.5l18 48l-207 474q-7 17 -16 24t-35 13v29h244v-29q-41 -5 -55 -11
t-14 -22q0 -10 6 -28zM337 765l112 -172h-33l-119 103l-119 -103h-33l112 172h80z" />
    <glyph glyph-name="Ydieresis" unicode="&#x178;" horiz-adv-x="641" 
d="M377 278v-180q0 -39 18 -49.5t76 -18.5v-30h-301v30q26 3 36.5 5t25.5 6.5t20 11t9 17.5t4 28v179l-201 358q-17 30 -59 37v30h276v-30q-48 -1 -66 -9t-18 -28q0 -17 19 -50l146 -256l141 254q18 36 18 53q0 19 -18 26.5t-66 9.5v30h199v-30q-42 -8 -59 -37zM177 822
q0 28 19 47.5t47 19.5t48 -19.5t20 -47.5q0 -27 -20 -47t-48 -20q-27 0 -46.5 20t-19.5 47zM372 822q0 28 19 47.5t47 19.5t47.5 -19.5t19.5 -47.5q0 -27 -19.5 -47t-47.5 -20q-27 0 -46.5 20t-19.5 47z" />
    <glyph glyph-name="Zacute" unicode="&#x179;" horiz-adv-x="593" 
d="M165 36h198q59 0 90.5 32.5t90.5 137.5h29l-33 -206h-520v20l393 646h-194q-31 0 -50.5 -6.5t-37 -29.5t-28 -45t-33.5 -75h-27l6 192h507v-21zM316 898h122v-6l-150 -143h-26z" />
    <glyph glyph-name="zacute" unicode="&#x17a;" horiz-adv-x="492" 
d="M282 762h118v-6l-151 -162h-25zM30 0v17l297 470h-134q-43 0 -68.5 -31t-52.5 -110h-27l16 210h25l12 -34h359v-20l-291 -467h144q41 0 69.5 33.5t56.5 117.5h27l-18 -186h-415z" />
    <glyph glyph-name="Zdotaccent" unicode="&#x17b;" horiz-adv-x="593" 
d="M298 753q-30 0 -50.5 20.5t-20.5 50.5q0 29 20.5 49.5t50.5 20.5q31 0 51.5 -20.5t20.5 -49.5q0 -30 -20.5 -50.5t-51.5 -20.5zM165 36h198q59 0 90.5 32.5t90.5 137.5h29l-33 -206h-520v20l393 646h-194q-31 0 -50.5 -6.5t-37 -29.5t-28 -45t-33.5 -75h-27l6 192h507
v-21z" />
    <glyph glyph-name="zdotaccent" unicode="&#x17c;" horiz-adv-x="492" 
d="M30 0v17l297 470h-134q-43 0 -68.5 -31t-52.5 -110h-27l16 210h25l12 -34h359v-20l-291 -467h144q41 0 69.5 33.5t56.5 117.5h27l-18 -186h-415zM260 605q-30 0 -50.5 21t-20.5 50t20.5 50t50.5 21q31 0 51.5 -21t20.5 -50t-20.5 -50t-51.5 -21z" />
    <glyph glyph-name="Zcaron" unicode="&#x17d;" horiz-adv-x="593" 
d="M466 907l-128 -158h-80l-128 158h31l137 -89l137 89h31zM165 36h198q59 0 90.5 32.5t90.5 137.5h29l-33 -206h-520v20l393 646h-194q-31 0 -50.5 -6.5t-37 -29.5t-28 -45t-33.5 -75h-27l6 192h507v-21z" />
    <glyph glyph-name="zcaron" unicode="&#x17e;" horiz-adv-x="492" 
d="M412 767l-112 -172h-80l-112 172h33l119 -103l119 103h33zM30 0v17l297 470h-134q-43 0 -68.5 -31t-52.5 -110h-27l16 210h25l12 -34h359v-20l-291 -467h144q41 0 69.5 33.5t56.5 117.5h27l-18 -186h-415z" />
    <glyph glyph-name="florin" unicode="&#x192;" horiz-adv-x="511" 
d="M83 328l4 32h91l10 70q18 139 68 210.5t140 71.5q53 0 80 -20.5t27 -56.5q0 -45 -50 -59h-26q-1 32 -3.5 53t-13.5 39t-31 18q-47 0 -58 -85l-32 -241h110l-4 -32h-110l-26 -204q-36 -282 -207 -282q-53 0 -80.5 21t-27.5 56q0 44 50 60h26q1 -33 3.5 -54t13.5 -39
t31 -18q47 0 58 85l48 375h-91z" />
    <glyph glyph-name="Aringacute" unicode="&#x1fa;" horiz-adv-x="711" 
d="M505 114l-51 125h-279l-48 -125q-10 -23 -10 -39q0 -23 20 -33t69 -12v-30h-201v30q17 3 26 6t18.5 10.5t14.5 20.5l225 572l-30 70h126l262 -642q7 -18 20.5 -25.5t38.5 -11.5v-30h-279v30q48 2 67.5 11.5t19.5 32.5q0 18 -9 40zM312 590l-122 -314h249zM239 814
q0 36 26 59.5t65 23.5t65 -23.5t26 -59.5q0 -35 -26 -58.5t-65 -23.5t-65 23.5t-26 58.5zM343 1036h123v-6l-140 -114h-26zM275 814q0 -23 15 -37t40 -14t39.5 14t14.5 37q0 24 -14.5 38t-39.5 14t-40 -14.5t-15 -37.5z" />
    <glyph glyph-name="aringacute" unicode="&#x1fb;" horiz-adv-x="506" 
d="M156 637q0 36 26 59.5t65 23.5q40 0 65.5 -23.5t25.5 -59.5q0 -35 -25.5 -58.5t-65.5 -23.5q-39 0 -65 23.5t-26 58.5zM260 860h123v-6l-140 -114h-26zM193 637q0 -23 14.5 -37t39.5 -14t40 14t15 37t-15 37.5t-40 14.5t-39.5 -14.5t-14.5 -37.5zM218 58q41 0 96 44v188
l-105 -43q-37 -14 -55.5 -36.5t-18.5 -61.5q0 -42 21 -66.5t62 -24.5zM426 376v-265q0 -32 8 -46.5t28 -14.5q19 0 43 11l6 -18q-39 -53 -104 -53q-78 0 -91 89q-73 -88 -158 -88q-60 0 -95.5 34.5t-35.5 92.5t36 91t104 58l147 54v76q0 109 -83 109q-38 0 -56.5 -23.5
t-18.5 -63.5q0 -22 8 -56l-66 -9q-42 13 -42 58q0 57 52.5 89.5t134.5 32.5q183 0 183 -158z" />
    <glyph glyph-name="AEacute" unicode="&#x1fc;" horiz-adv-x="1009" 
d="M64 67l368 565q-12 33 -103 40v30h619l5 -173h-25q-35 81 -65.5 109t-85.5 28h-162v-285h145q32 0 47 21t23 70h31v-219h-31q-8 48 -23 69t-47 21h-145v-239q0 -39 21.5 -53.5t72.5 -14.5h79q54 0 87 31.5t85 121.5h29l-31 -189h-545v30q56 7 70.5 18.5t14.5 52.5v146
h-268l-86 -133q-16 -24 -16 -41q0 -42 95 -43v-30h-218v30q21 4 33.5 12t25.5 25zM498 658l-244 -375h244v375zM659 898h122v-6l-150 -143h-26z" />
    <glyph glyph-name="aeacute" unicode="&#x1fd;" horiz-adv-x="746" 
d="M528 534q93 0 144 -57.5t51 -148.5v-22h-325q-4 -111 43 -173.5t126 -62.5q93 0 148 85l14 -7q-19 -72 -72.5 -115t-132.5 -43q-120 0 -182 94q-77 -93 -183 -93q-61 0 -96.5 34.5t-35.5 92.5t36 91t104 58l136 47q4 24 12 49q0 64 -22 103.5t-67 39.5q-35 0 -52.5 -24
t-17.5 -63q0 -22 8 -56l-66 -9q-42 13 -42 58q0 57 51 89.5t127 32.5q102 0 142 -66q63 66 152 66zM220 58q56 0 111 45q-33 64 -33 145q0 22 1 33l-88 -33q-39 -15 -57.5 -37.5t-18.5 -61.5q0 -42 21.5 -66.5t63.5 -24.5zM519 500q-51 0 -81 -44.5t-37 -116.5h218
q0 74 -24.5 117.5t-75.5 43.5zM420 762h118v-6l-151 -162h-25z" />
    <glyph glyph-name="Oslashacute" unicode="&#x1fe;" horiz-adv-x="708" 
d="M349 -10q-101 0 -176 51l-64 -95l-29 20l65 96q-55 48 -84.5 120.5t-29.5 154.5q0 169 93 272t234 103q106 0 185 -58l60 89l29 -20l-62 -92q51 -48 78.5 -118t27.5 -148q0 -169 -93 -272t-234 -103zM158 354q0 -123 41 -211l295 439q-53 93 -145 93q-91 0 -141 -92.5
t-50 -228.5zM358 27q90 0 140 92.5t50 228.5q0 112 -36 197l-293 -436q52 -82 139 -82zM374 898h122v-6l-150 -143h-26z" />
    <glyph glyph-name="oslashacute" unicode="&#x1ff;" horiz-adv-x="537" 
d="M266 -10q-76 0 -134 36l-49 -75l-28 17l51 77q-83 72 -83 205q0 126 70.5 205t177.5 79q75 0 133 -36l51 77l28 -17l-53 -80q84 -71 84 -203q0 -127 -70.5 -206t-177.5 -79zM271 23q60 0 92.5 60t32.5 162q0 85 -20 150l-200 -303q34 -69 95 -69zM142 279q0 -88 19 -149
l200 303q-34 68 -95 68q-60 0 -92 -60t-32 -162zM290 762h118v-6l-151 -162h-25z" />
    <glyph glyph-name="Scommaaccent" unicode="&#x218;" horiz-adv-x="533" 
d="M282 -150h-47q-42 8 -42 51q0 25 17.5 40t46.5 15q36 0 56.5 -22.5t20.5 -57.5q0 -48 -33 -77t-98 -29v26q37 0 58 16t21 38zM253 -10q-67 0 -124 18t-91 47l-7 171h35q18 -96 65.5 -148t121.5 -52q65 0 103 34t38 89q0 57 -35.5 89t-134.5 71q-93 37 -139.5 82
t-46.5 126q0 85 60 140t160 55q123 0 204 -58v-149h-33q-12 83 -55.5 127t-115.5 44q-55 0 -87.5 -31.5t-32.5 -81.5q0 -54 30.5 -83.5t115.5 -62.5q111 -44 161 -92t50 -131q0 -95 -69 -149.5t-173 -54.5z" />
    <glyph glyph-name="scommaaccent" unicode="&#x219;" horiz-adv-x="442" 
d="M244 -150h-47q-42 8 -42 51q0 25 17.5 40t46.5 15q36 0 56.5 -22.5t20.5 -57.5q0 -48 -33 -77t-98 -29v26q37 0 58 16t21 38zM216 -10q-108 0 -174 49l-6 138h32q19 -71 57 -113.5t93 -42.5q45 0 73 22.5t28 65.5q0 40 -27 62.5t-95 48.5q-82 30 -118 66t-36 99
q0 69 47.5 109t126.5 40q89 0 157 -42v-121h-29q-15 60 -47.5 96t-83.5 36q-40 0 -62.5 -21.5t-22.5 -56.5q0 -37 25 -59t90 -46q84 -30 123.5 -67.5t39.5 -101.5q0 -75 -52 -118t-139 -43z" />
    <glyph glyph-name="uni0237" unicode="&#x237;" horiz-adv-x="257" 
d="M75 433l-63 35v14l159 52h16v-445q0 -69 -7.5 -103.5t-28.5 -68.5q-38 -61 -134 -138l-16 13l41 71q15 26 22.5 58.5t9 59t1.5 74.5v378z" />
    <glyph glyph-name="circumflex" unicode="&#x2c6;" 
d="M290 765l112 -172h-33l-119 103l-119 -103h-33l112 172h80z" />
    <glyph glyph-name="caron" unicode="&#x2c7;" 
d="M402 767l-112 -172h-80l-112 172h33l119 -103l119 103h33z" />
    <glyph glyph-name="breve" unicode="&#x2d8;" 
d="M252 596q-64 0 -97.5 41t-33.5 120h33q8 -91 98 -91q89 0 97 91h33q0 -79 -33.5 -120t-96.5 -41z" />
    <glyph glyph-name="dotaccent" unicode="&#x2d9;" 
d="M249 605q-30 0 -50.5 21t-20.5 50t20.5 50t50.5 21q31 0 51.5 -21t20.5 -50t-20.5 -50t-51.5 -21z" />
    <glyph glyph-name="ring" unicode="&#x2da;" 
d="M199 658q0 -25 14 -40.5t39 -15.5t39 15.5t14 40.5t-14 41t-39 16t-39 -16t-14 -41zM162 658q0 38 25.5 64t64.5 26t64.5 -26t25.5 -64t-25.5 -63.5t-64.5 -25.5t-64.5 25.5t-25.5 63.5z" />
    <glyph glyph-name="ogonek" unicode="&#x2db;" 
d="M325 23l6 -13q-114 -48 -114 -118q0 -52 49 -52q39 0 80 34l11 -13q-57 -72 -127 -72q-39 0 -63 22.5t-24 58.5q0 29 14.5 52.5t43.5 42t56 31t68 27.5z" />
    <glyph glyph-name="tilde" unicode="&#x2dc;" 
d="M313 601q-29 0 -71 29.5t-63 29.5t-36 -13t-32 -43l-22 12q29 69 50.5 94.5t55.5 25.5q29 0 71 -29.5t63 -29.5t36 13t32 44l22 -12q-29 -69 -50.5 -95t-55.5 -26z" />
    <glyph glyph-name="hungarumlaut" unicode="&#x2dd;" 
d="M151 762h109v-6l-141 -162h-26zM302 762h110v-6l-142 -162h-25z" />
    <glyph glyph-name="pi" unicode="&#x3c0;" horiz-adv-x="566" 
d="M336 159l32 291h-179q0 -275 -40 -450h-118v18q106 199 106 432h-115v84h510l-17 -84h-80v-334q0 -67 56 -67q25 0 48 6l4 -15q-52 -50 -109 -50q-47 0 -74.5 26.5t-27.5 81.5q0 22 4 61z" />
    <glyph glyph-name="Wgrave" unicode="&#x1e80;" horiz-adv-x="939" 
d="M619 -8l-139 416l-149 -416h-35l-232 643q-10 28 -59 37v30h272v-30q-46 -2 -64 -11t-18 -31q0 -4 10 -44l149 -421l108 299l-57 171q-4 13 -13 20.5t-18 10.5t-26 6v30h265v-30q-48 -1 -66.5 -10.5t-18.5 -32.5q0 -13 10 -45l135 -414l140 414q11 29 11 43q0 23 -19 33
t-67 12v30h196v-30q-18 -3 -26 -5.5t-18 -10.5t-14 -21l-223 -643h-34zM351 898h123l53 -149h-26l-150 143v6z" />
    <glyph glyph-name="wgrave" unicode="&#x1e81;" horiz-adv-x="803" 
d="M581 140l113 295q5 11 5 25q0 17 -15 24t-51 11v29h165v-29q-26 -7 -35.5 -14t-15.5 -23l-185 -467h-33l-120 332l-130 -332h-32l-191 467q-7 17 -16 24t-35 13v29h238v-29q-35 -4 -49 -10.5t-14 -23.5q0 -13 5 -26l113 -299l92 241l-30 81q-5 16 -14.5 23.5t-34.5 13.5
v29h229v-29q-38 -4 -52.5 -10.5t-14.5 -24.5q0 -8 5 -25zM279 762h119l57 -168h-25l-151 162v6z" />
    <glyph glyph-name="Wacute" unicode="&#x1e82;" horiz-adv-x="939" 
d="M619 -8l-139 416l-149 -416h-35l-232 643q-10 28 -59 37v30h272v-30q-46 -2 -64 -11t-18 -31q0 -4 10 -44l149 -421l108 299l-57 171q-4 13 -13 20.5t-18 10.5t-26 6v30h265v-30q-48 -1 -66.5 -10.5t-18.5 -32.5q0 -13 10 -45l135 -414l140 414q11 29 11 43q0 23 -19 33
t-67 12v30h196v-30q-18 -3 -26 -5.5t-18 -10.5t-14 -21l-223 -643h-34zM502 898h122v-6l-150 -143h-26z" />
    <glyph glyph-name="wacute" unicode="&#x1e83;" horiz-adv-x="803" 
d="M433 762h118v-6l-151 -162h-25zM581 140l113 295q5 11 5 25q0 17 -15 24t-51 11v29h165v-29q-26 -7 -35.5 -14t-15.5 -23l-185 -467h-33l-120 332l-130 -332h-32l-191 467q-7 17 -16 24t-35 13v29h238v-29q-35 -4 -49 -10.5t-14 -23.5q0 -13 5 -26l113 -299l92 241
l-30 81q-5 16 -14.5 23.5t-34.5 13.5v29h229v-29q-38 -4 -52.5 -10.5t-14.5 -24.5q0 -8 5 -25z" />
    <glyph glyph-name="Wdieresis" unicode="&#x1e84;" horiz-adv-x="939" 
d="M619 -8l-139 416l-149 -416h-35l-232 643q-10 28 -59 37v30h272v-30q-46 -2 -64 -11t-18 -31q0 -4 10 -44l149 -421l108 299l-57 171q-4 13 -13 20.5t-18 10.5t-26 6v30h265v-30q-48 -1 -66.5 -10.5t-18.5 -32.5q0 -13 10 -45l135 -414l140 414q11 29 11 43q0 23 -19 33
t-67 12v30h196v-30q-18 -3 -26 -5.5t-18 -10.5t-14 -21l-223 -643h-34zM321 822q0 28 19 47.5t47 19.5t48 -19.5t20 -47.5q0 -27 -20 -47t-48 -20q-27 0 -46.5 20t-19.5 47zM516 822q0 28 19 47.5t47 19.5t47.5 -19.5t19.5 -47.5q0 -27 -19.5 -47t-47.5 -20q-27 0 -46.5 20
t-19.5 47z" />
    <glyph glyph-name="wdieresis" unicode="&#x1e85;" horiz-adv-x="803" 
d="M252 674q0 28 19 47.5t47 19.5t48 -19.5t20 -47.5t-20 -47.5t-48 -19.5t-47 19.5t-19 47.5zM438 674q0 28 19.5 47.5t47.5 19.5t47.5 -19.5t19.5 -47.5t-19.5 -47.5t-47.5 -19.5t-47.5 19.5t-19.5 47.5zM581 140l113 295q5 11 5 25q0 17 -15 24t-51 11v29h165v-29
q-26 -7 -35.5 -14t-15.5 -23l-185 -467h-33l-120 332l-130 -332h-32l-191 467q-7 17 -16 24t-35 13v29h238v-29q-35 -4 -49 -10.5t-14 -23.5q0 -13 5 -26l113 -299l92 241l-30 81q-5 16 -14.5 23.5t-34.5 13.5v29h229v-29q-38 -4 -52.5 -10.5t-14.5 -24.5q0 -8 5 -25z" />
    <glyph glyph-name="Ygrave" unicode="&#x1ef2;" horiz-adv-x="641" 
d="M377 278v-180q0 -39 18 -49.5t76 -18.5v-30h-301v30q26 3 36.5 5t25.5 6.5t20 11t9 17.5t4 28v179l-201 358q-17 30 -59 37v30h276v-30q-48 -1 -66 -9t-18 -28q0 -17 19 -50l146 -256l141 254q18 36 18 53q0 19 -18 26.5t-66 9.5v30h199v-30q-42 -8 -59 -37zM208 898h123
l53 -149h-26l-150 143v6z" />
    <glyph glyph-name="ygrave" unicode="&#x1ef3;" horiz-adv-x="542" 
d="M315 114l119 320q6 18 6 28q0 16 -14 22t-55 11v29h166v-29q-26 -6 -35.5 -13.5t-15.5 -23.5l-216 -558q-24 -62 -51.5 -90.5t-72.5 -28.5q-25 0 -46 13t-28 35v39q34 -9 62 -9q43 0 69 16.5t42 60.5l18 48l-207 474q-7 17 -16 24t-35 13v29h244v-29q-41 -5 -55 -11
t-14 -22q0 -10 6 -28zM164 762h119l57 -168h-25l-151 162v6z" />
    <glyph glyph-name="endash" unicode="&#x2013;" horiz-adv-x="540" 
d="M510 280h-480v42h480v-42z" />
    <glyph glyph-name="emdash" unicode="&#x2014;" horiz-adv-x="960" 
d="M930 322v-42h-900v42h900z" />
    <glyph glyph-name="quoteleft" unicode="&#x2018;" horiz-adv-x="217" 
d="M97 646h38q52 -11 52 -63q0 -30 -20.5 -49t-50.5 -19q-35 0 -55.5 26t-20.5 67q0 61 39.5 101t110.5 45v-27q-85 -14 -93 -81z" />
    <glyph glyph-name="quoteright" unicode="&#x2019;" horiz-adv-x="217" 
d="M124 618h-37q-52 11 -52 63q0 30 20.5 49t50.5 19q35 0 55.5 -26t20.5 -67q0 -62 -39.5 -101.5t-110.5 -44.5v27q86 14 92 81z" />
    <glyph glyph-name="quotesinglbase" unicode="&#x201a;" horiz-adv-x="217" 
d="M124 0h-37q-52 11 -52 63q0 31 20.5 49.5t50.5 18.5q35 0 55.5 -25.5t20.5 -66.5q0 -62 -39 -101.5t-111 -45.5v27q86 14 92 81z" />
    <glyph glyph-name="quotedblleft" unicode="&#x201c;" horiz-adv-x="389" 
d="M270 646h37q52 -11 52 -63q0 -30 -20 -49t-51 -19q-35 0 -55.5 26t-20.5 67q0 61 39.5 101t110.5 45v-27q-86 -14 -92 -81zM97 646h38q52 -11 52 -63q0 -30 -20.5 -49t-50.5 -19q-35 0 -55.5 26t-20.5 67q0 61 39.5 101t110.5 45v-27q-85 -14 -93 -81z" />
    <glyph glyph-name="quotedblright" unicode="&#x201d;" horiz-adv-x="389" 
d="M124 618h-37q-52 11 -52 63q0 30 20.5 49t50.5 19q35 0 55.5 -26t20.5 -67q0 -62 -39.5 -101.5t-110.5 -44.5v27q86 14 92 81zM297 618h-37q-52 11 -52 63q0 30 20 49t50 19q35 0 55.5 -26t20.5 -67q0 -62 -39 -101.5t-111 -44.5v27q86 14 93 81z" />
    <glyph glyph-name="quotedblbase" unicode="&#x201e;" horiz-adv-x="389" 
d="M124 0h-37q-52 11 -52 63q0 31 20.5 49.5t50.5 18.5q35 0 55.5 -25.5t20.5 -66.5q0 -62 -39 -101.5t-111 -45.5v27q86 14 92 81zM297 0h-37q-52 11 -52 63q0 31 20 49.5t50 18.5q35 0 55.5 -25.5t20.5 -66.5q0 -62 -39 -101.5t-111 -45.5v27q85 14 93 81z" />
    <glyph glyph-name="dagger" unicode="&#x2020;" horiz-adv-x="358" 
d="M187 591q0 -31 12.5 -55.5t31.5 -35.5v-8q-18 -27 -30.5 -112.5t-15.5 -194.5h-12q-3 109 -15.5 194.5t-30.5 112.5v8q19 11 31.5 35.5t12.5 55.5q-24 0 -59.5 -14.5t-52.5 -14.5q-18 0 -28.5 10t-10.5 27t10.5 27t28.5 10q17 0 52.5 -14.5t59.5 -14.5q0 24 -14.5 59.5
t-14.5 52.5q0 18 10 28.5t27 10.5t27 -10.5t10 -28.5q0 -17 -14.5 -52.5t-14.5 -59.5q24 0 59.5 14.5t52.5 14.5q18 0 28.5 -10t10.5 -27t-10.5 -27t-28.5 -10q-17 0 -52.5 14.5t-59.5 14.5z" />
    <glyph glyph-name="daggerdbl" unicode="&#x2021;" horiz-adv-x="362" 
d="M174 472q0 17 -12.5 33t-32.5 20v8q44 25 44 75q-24 0 -59.5 -15t-52.5 -15q-18 0 -28.5 10t-10.5 27t10.5 27.5t28.5 10.5q17 0 52.5 -15t59.5 -15q0 24 -14.5 51.5t-14.5 44.5q0 18 10 28.5t27 10.5t27 -10.5t10 -28.5q0 -17 -14.5 -44.5t-14.5 -51.5q24 0 59.5 15
t52.5 15q18 0 28.5 -10.5t10.5 -27.5t-10.5 -27t-28.5 -10q-17 0 -52.5 15t-59.5 15q0 -50 44 -75v-8q-20 -4 -32.5 -20t-12.5 -33t13 -33t32 -20v-8q-44 -25 -44 -75q24 0 59.5 15t52.5 15q18 0 28.5 -10.5t10.5 -27.5t-10.5 -27t-28.5 -10q-17 0 -52.5 15t-59.5 15
q0 -24 14.5 -51.5t14.5 -44.5q0 -18 -10 -28.5t-27 -10.5t-27 10.5t-10 28.5q0 17 14.5 44.5t14.5 51.5q-24 0 -59.5 -15t-52.5 -15q-18 0 -28.5 10t-10.5 27t10.5 27.5t28.5 10.5q17 0 52.5 -15t59.5 -15q0 50 -44 75v8q19 4 32 20t13 33z" />
    <glyph glyph-name="bullet" unicode="&#x2022;" horiz-adv-x="319" 
d="M30 303q0 53 38 91.5t91 38.5q54 0 92 -38.5t38 -91.5q0 -54 -38 -92t-92 -38q-53 0 -91 38t-38 92z" />
    <glyph glyph-name="ellipsis" unicode="&#x2026;" horiz-adv-x="642" 
d="M30 67q0 32 22.5 54.5t54.5 22.5t54.5 -22.5t22.5 -54.5t-22.5 -54.5t-54.5 -22.5t-54.5 22.5t-22.5 54.5zM244 67q0 32 22.5 54.5t54.5 22.5t54.5 -22.5t22.5 -54.5t-22.5 -54.5t-54.5 -22.5t-54.5 22.5t-22.5 54.5zM458 67q0 32 22.5 54.5t54.5 22.5t54.5 -22.5
t22.5 -54.5t-22.5 -54.5t-54.5 -22.5t-54.5 22.5t-22.5 54.5z" />
    <glyph glyph-name="perthousand" unicode="&#x2030;" horiz-adv-x="1117" 
d="M722 158q0 -77 -48.5 -122.5t-116.5 -45.5t-116 46t-48 122t48 121.5t116 45.5t116.5 -45.5t48.5 -121.5zM137 -10l438 722h42l-439 -722h-41zM31 544q0 77 48.5 122.5t116.5 45.5t116.5 -45.5t48.5 -122.5q0 -76 -48.5 -121.5t-116.5 -45.5t-116.5 45.5t-48.5 121.5z
M641 158q0 62 -20.5 101t-63.5 39q-42 0 -62.5 -39t-20.5 -101t20.5 -101t62.5 -39q43 0 63.5 39t20.5 101zM112 544q0 -62 20.5 -101t63.5 -39q42 0 62.5 39t20.5 101t-20.5 101t-62.5 39q-43 0 -63.5 -39t-20.5 -101zM1005 158q0 62 -20.5 101t-63.5 39q-42 0 -62.5 -39
t-20.5 -101t20.5 -101t62.5 -39q43 0 63.5 39t20.5 101zM1086 158q0 -77 -48.5 -122.5t-116.5 -45.5t-116.5 45.5t-48.5 122.5q0 76 48.5 121.5t116.5 45.5t116.5 -45.5t48.5 -121.5z" />
    <glyph glyph-name="guilsinglleft" unicode="&#x2039;" horiz-adv-x="286" 
d="M32 271v6l190 194h32l-117 -197l117 -197h-32z" />
    <glyph glyph-name="guilsinglright" unicode="&#x203a;" horiz-adv-x="286" 
d="M254 277v-6l-190 -194h-32l117 197l-117 197h32z" />
    <glyph glyph-name="fraction" unicode="&#x2044;" horiz-adv-x="283" 
d="M-98 -10l438 722h42l-438 -722h-42z" />
    <glyph glyph-name="Euro" unicode="&#x20ac;" horiz-adv-x="646" 
d="M13 395v35h90q21 130 100 206t192 76q119 0 194 -61v-156h-31q-19 88 -56 135.5t-105 47.5q-74 0 -118.5 -70.5t-55.5 -177.5h251l-13 -35h-240q-1 -11 -1 -31q0 -33 1 -49h214l-13 -34h-199q23 -256 182 -256q71 0 111 48t70 146h32l-17 -175q-97 -54 -200 -54
q-133 0 -210.5 78.5t-91.5 212.5h-86v34h83v25q0 19 2 55h-85z" />
    <glyph glyph-name="uni2117" unicode="&#x2117;" horiz-adv-x="792" 
d="M420 317h-51v-102q0 -23 15 -30.5t53 -9.5v-21h-196v21q30 1 40.5 8.5t10.5 31.5v275q0 24 -10.5 31.5t-40.5 8.5v21h178q76 0 114.5 -33t38.5 -82q0 -55 -38 -87t-114 -32zM369 524v-181h39q43 0 66 24t23 67q0 39 -24.5 64.5t-69.5 25.5h-34zM63 351
q0 -142 94.5 -239.5t238.5 -97.5t238.5 97.5t94.5 239.5t-94.5 239.5t-238.5 97.5t-238.5 -97.5t-94.5 -239.5zM38 351q0 151 101.5 256t256.5 105t256.5 -105t101.5 -256t-101.5 -256t-256.5 -105t-256.5 105t-101.5 256z" />
    <glyph glyph-name="trademark" unicode="&#x2122;" horiz-adv-x="842" 
d="M342 702l8 -101h-17q-20 43 -36.5 61t-45.5 18h-22v-258q0 -12 6 -18.5t15.5 -9t27.5 -3.5v-21h-170v21q17 1 26.5 3.5t15.5 9t6 18.5v258h-22q-29 0 -45 -18t-36 -61h-17l7 101h299zM578 470l77 203q7 26 7 29h100v-21q-22 -1 -30 -11t-9 -27l29 -227q2 -14 10.5 -18.5
t29.5 -6.5v-21h-154v21q26 2 35.5 6.5t9.5 19.5q0 8 -4 34l-20 161l-92 -244h-18l-100 244l-20 -160q-3 -21 -3 -35q0 -15 9.5 -19.5t35.5 -6.5v-21h-115v21q36 1 39 25l30 227q-2 35 -40 38v21h105q1 -16 7 -29z" />
    <glyph glyph-name="Omega" unicode="&#x2126;" horiz-adv-x="704" 
d="M352 683q-46 0 -79.5 -25.5t-51 -68.5t-25 -89t-7.5 -98q0 -216 123 -328v-74h-247l-25 179h23q37 -69 60.5 -85t90.5 -16h61q-81 36 -145 127t-64 197q0 136 77.5 223t208.5 87t208.5 -87t77.5 -223q0 -106 -64.5 -197t-145.5 -127h62q67 0 90 15.5t60 85.5h24l-25 -179
h-247v74q123 113 123 328q0 52 -7.5 98t-25 89t-51 68.5t-79.5 25.5z" />
    <glyph glyph-name="uni2153" unicode="&#x2153;" horiz-adv-x="773" 
d="M183 712h22v-338q0 -25 15.5 -31.5t65.5 -9.5v-25h-246v25q51 3 66 9.5t15 31.5v242h-81v19l25 5q42 9 68 25t50 47zM148 -10l438 722h42l-439 -722h-41zM609 223q58 -3 91 -33.5t33 -79.5q0 -54 -44.5 -87t-108.5 -33t-100 25t-36 61q0 29 26 43h50q-4 -13 -4 -26
q0 -79 70 -79q33 0 51.5 22t18.5 62q0 89 -106 89h-14l-3 17q48 16 71.5 37t23.5 51q0 25 -15 40.5t-45 15.5q-54 0 -86 -52l-21 12q19 43 56 69.5t88 26.5q50 0 76.5 -23.5t26.5 -62.5q0 -67 -99 -95z" />
    <glyph glyph-name="uni2154" unicode="&#x2154;" horiz-adv-x="809" 
d="M184 -10l438 722h42l-438 -722h-42zM645 223q58 -3 91 -33.5t33 -79.5q0 -54 -44.5 -87t-108.5 -33t-100 25t-36 61q0 29 26 43h50q-4 -13 -4 -26q0 -79 70 -79q33 0 51.5 22t18.5 62q0 89 -105 89h-15l-3 17q49 16 72.5 36.5t23.5 51.5q0 25 -15.5 40.5t-45.5 15.5
q-54 0 -86 -52l-20 12q19 43 56 69.5t87 26.5t77 -23.5t27 -62.5q0 -67 -100 -95zM125 379h104q33 0 47 9t36 46h16l-13 -127h-285v16l106 101q49 49 68.5 82.5t19.5 71.5q0 35 -19 54t-54 19q-55 0 -97 -48l-14 12q22 41 60 68t89 27q55 0 85.5 -29.5t30.5 -82.5
q0 -17 -4 -33t-15 -33t-19.5 -28.5t-30 -30.5t-32 -28.5t-39 -32.5t-40.5 -33z" />
    <glyph glyph-name="uni215B" unicode="&#x215b;" horiz-adv-x="797" 
d="M183 712h23v-338q0 -25 15.5 -31.5t65.5 -9.5v-25h-247v25q51 3 66 9.5t15 31.5v242h-81v19l25 5q42 9 68 25t50 47zM148 -10l438 722h42l-439 -722h-41zM739 311q0 -33 -26.5 -58t-59.5 -31q100 -43 100 -115q0 -56 -41.5 -86.5t-104.5 -30.5q-67 0 -108.5 28t-41.5 75
q0 35 26 60t67 35q-78 38 -78 102q0 50 37 82.5t96 32.5q60 0 97 -25.5t37 -68.5zM629 149l-64 32q-43 -28 -43 -82q0 -35 24.5 -59t61.5 -24q35 0 56 17.5t21 44.5q0 25 -14 40.5t-42 30.5zM589 253l49 -24q38 25 38 79q0 33 -19.5 52t-51.5 19q-30 0 -47.5 -16.5
t-17.5 -40.5q0 -45 49 -69z" />
    <glyph glyph-name="uni215C" unicode="&#x215c;" horiz-adv-x="808" 
d="M749 311q0 -33 -26 -58t-59 -31q100 -44 100 -115q0 -56 -42 -86.5t-104 -30.5q-67 0 -108.5 28t-41.5 75q0 35 26 60t66 35q-77 38 -77 102q0 50 37 82.5t96 32.5q60 0 96.5 -25.5t36.5 -68.5zM640 149l-64 32q-44 -27 -44 -82q0 -35 24.5 -59t61.5 -24q35 0 56.5 17.5
t21.5 44.5q0 25 -14 40.5t-42 30.5zM600 253l49 -24q38 25 38 79q0 33 -19.5 52t-52.5 19q-30 0 -47.5 -16.5t-17.5 -40.5q0 -45 50 -69zM158 -10l438 722h42l-438 -722h-42zM200 531q59 -3 92 -33.5t33 -79.5q0 -55 -44.5 -87.5t-108.5 -32.5t-100 25t-36 61q0 29 26 43h50
q-4 -13 -4 -26q0 -79 70 -79q33 0 51.5 22t18.5 62q0 89 -106 89h-14l-4 17q97 32 97 87q0 25 -15.5 41t-45.5 16q-54 0 -86 -52l-21 12q19 43 56 69.5t88 26.5q50 0 76.5 -23.5t26.5 -62.5q0 -67 -100 -95z" />
    <glyph glyph-name="uni215D" unicode="&#x215d;" horiz-adv-x="802" 
d="M153 -10l438 722h41l-438 -722h-41zM309 725l-21 -101h-167l-9 -57q92 -3 146.5 -38t54.5 -102q0 -59 -39 -94t-102 -35t-99 24.5t-36 59.5q0 34 27 45h48q-4 -13 -4 -27q0 -78 71 -78q35 0 54 21t19 56q0 101 -179 104l34 199h134q21 0 30 4t16 19h22zM743 311
q0 -33 -26 -58t-59 -31q100 -43 100 -115q0 -56 -41.5 -86.5t-104.5 -30.5q-67 0 -108.5 28t-41.5 75q0 35 26 60t67 35q-78 37 -78 102q0 50 37 82.5t96 32.5q60 0 96.5 -25.5t36.5 -68.5zM634 149l-64 32q-43 -28 -43 -82q0 -35 24 -59t61 -24q35 0 56.5 17.5t21.5 44.5
q0 25 -14 40.5t-42 30.5zM594 253l49 -24q38 25 38 79q0 33 -19.5 52t-52.5 19q-30 0 -47 -16.5t-17 -40.5q0 -45 49 -69z" />
    <glyph glyph-name="uni215E" unicode="&#x215e;" horiz-adv-x="748" 
d="M285 621h-159q-21 0 -34 -15t-26 -49h-28l29 145h286v-16l-195 -387h-62zM99 -10l438 722h42l-438 -722h-42zM690 311q0 -33 -26.5 -58t-59.5 -31q100 -43 100 -115q0 -56 -41.5 -86.5t-104.5 -30.5q-66 0 -108 28t-42 75q0 35 26 60t67 35q-78 38 -78 102
q0 50 37.5 82.5t96.5 32.5q60 0 96.5 -25.5t36.5 -68.5zM581 149l-65 32q-43 -28 -43 -82q0 -35 24.5 -59t61.5 -24q35 0 56.5 17.5t21.5 44.5q0 25 -14 40.5t-42 30.5zM540 253l49 -24q39 26 39 79q0 33 -19.5 52t-52.5 19q-30 0 -47.5 -16.5t-17.5 -40.5q0 -44 49 -69z
" />
    <glyph glyph-name="partialdiff" unicode="&#x2202;" horiz-adv-x="537" 
d="M261 534q75 0 118 -62q-26 89 -95.5 171t-172.5 116l13 25q188 -51 289 -181.5t101 -295.5q0 -143 -67 -230t-177 -87q-112 0 -180 73t-68 192q0 124 71 201.5t168 77.5zM271 23q60 0 92.5 60t32.5 162q0 112 -33 184t-97 72q-60 0 -92 -60t-32 -162q0 -111 33 -183.5
t96 -72.5z" />
    <glyph glyph-name="Delta" unicode="&#x2206;" horiz-adv-x="633" 
d="M621 0h-609v33l279 669h46l284 -669v-33zM279 570l-219 -531h435z" />
    <glyph glyph-name="product" unicode="&#x220f;" horiz-adv-x="749" 
d="M525 666h-302v-762q0 -41 14.5 -52.5t70.5 -18.5v-30h-287v30q56 7 70.5 18.5t14.5 52.5v697q0 41 -14.5 52.5t-70.5 18.5v30h706v-30q-55 -7 -69.5 -18.5t-14.5 -52.5v-697q0 -41 14.5 -52.5t69.5 -18.5v-30h-286v30q55 7 69.5 18.5t14.5 52.5v762z" />
    <glyph glyph-name="summation" unicode="&#x2211;" horiz-adv-x="546" 
d="M99 -99h233q75 0 104.5 16.5t73.5 90.5h24l-32 -205h-500v31l298 392l-287 440v36h495v-172h-21q-33 76 -62 106.5t-87 30.5h-193l247 -377v-7z" />
    <glyph glyph-name="minus" unicode="&#x2212;" horiz-adv-x="566" 
d="M64 343v56h439v-56h-439z" />
    <glyph glyph-name="radical" unicode="&#x221a;" horiz-adv-x="575" 
d="M312 152l206 560h44l-264 -712h-55l-133 445q-9 31 -22 42.5t-41 11.5l-27 1v34h188z" />
    <glyph glyph-name="infinity" unicode="&#x221e;" horiz-adv-x="738" 
d="M343 351l-42 49q-52 59 -108 59q-44 0 -73 -29t-29 -79q0 -49 29 -78.5t73 -29.5q56 0 108 59zM369 317l-37 -43q-61 -71 -141 -71q-61 0 -104 40t-43 108t42.5 108t104.5 40q81 0 141 -70l37 -44l38 44q58 70 140 70q62 0 104.5 -40t42.5 -108t-43 -108t-104 -40
q-81 0 -140 71zM439 400l-43 -49l43 -49q51 -59 108 -59q44 0 73 29.5t29 78.5q0 50 -29 79t-73 29q-57 0 -108 -59z" />
    <glyph glyph-name="integral" unicode="&#x222b;" horiz-adv-x="404" 
d="M222 577v-569q0 -100 -45.5 -152t-124.5 -52q-55 0 -88 21.5t-33 59.5q0 36 33 55h58v-45q0 -64 39 -64q30 0 41 28t11 80v569q0 100 45.5 152t124.5 52q55 0 88 -21.5t33 -59.5q0 -36 -33 -55h-58v45q0 64 -39 64q-30 0 -41 -28t-11 -80z" />
    <glyph glyph-name="approxequal" unicode="&#x2248;" horiz-adv-x="576" 
d="M69 396v56q61 40 118 40q38 0 100.5 -19.5t100.5 -19.5q59 0 120 40v-56q-61 -40 -120 -40q-38 0 -100.5 19.5t-100.5 19.5q-57 0 -118 -40zM69 254v55q59 40 118 40q38 0 100.5 -19t100.5 -19q61 0 120 39v-56q-59 -39 -120 -39q-38 0 -100.5 19t-100.5 19
q-58 0 -118 -39z" />
    <glyph glyph-name="notequal" unicode="&#x2260;" horiz-adv-x="576" 
d="M69 414v54h264l81 107h60l-81 -107h115v-54h-155l-67 -88h222v-53h-262l-81 -108h-61l81 108h-116v53h156l67 88h-223z" />
    <glyph glyph-name="lessequal" unicode="&#x2264;" horiz-adv-x="436" 
d="M51 400v8l311 168v-62l-209 -110l209 -109v-62zM51 141v55h311v-55h-311z" />
    <glyph glyph-name="greaterequal" unicode="&#x2265;" horiz-adv-x="436" 
d="M385 408v-8l-311 -167v62l209 109l-209 110v62zM385 196v-55h-311v55h311z" />
    <glyph glyph-name="lozenge" unicode="&#x25ca;" horiz-adv-x="534" 
d="M31 351l202 351h68l202 -351l-202 -351h-68zM451 351l-184 318l-184 -318l184 -318z" />
    <glyph glyph-name="i.dot" horiz-adv-x="280" 
d="M199 534v-458q0 -27 13.5 -36t52.5 -11v-29h-244v29q39 2 52.5 11t13.5 36v357l-63 35v14l159 52h16zM143 605q-30 0 -50.5 21t-20.5 50t20.5 50t50.5 21q31 0 51.5 -21t20.5 -50t-20.5 -50t-51.5 -21z" />
    <glyph glyph-name="space_uni0326" 
d="M265 -150h-47q-42 8 -42 51q0 25 17.5 40t46.5 15q36 0 56.5 -22.5t20.5 -57.5q0 -48 -33 -77t-98 -29v26q37 0 58 16t21 38z" />
    <glyph glyph-name="space_uni0326.alt" 
d="M228 709h47q42 -8 42 -50q0 -25 -17.5 -40t-46.5 -15q-36 0 -56.5 22t-20.5 57q0 48 33 77t98 29v-25q-37 0 -58 -16t-21 -39z" />
    <glyph glyph-name="space_dotbelowcomb" 
d="M249 -182q-30 0 -50 20.5t-20 49.5t20 49.5t50 20.5q31 0 51.5 -20.5t20.5 -49.5t-20.5 -49.5t-51.5 -20.5z" />
    <glyph glyph-name="caron.Slovak" 
d="M316 777l-107 -199h-17l18 205h106v-6z" />
    <glyph glyph-name="cedilla.alt" 
d="M160 -223l-6 28q53 0 83.5 14.5t30.5 37.5q0 39 -85 42l22 55h22q109 0 109 -76q0 -50 -48.5 -75.5t-127.5 -25.5z" />
    <glyph glyph-name="grave.cap" 
d="M159 898h123l53 -149h-26l-150 143v6z" />
    <glyph glyph-name="acute.cap" 
d="M213 898h122v-6l-150 -143h-26z" />
    <glyph glyph-name="circumflex.cap" 
d="M290 907l128 -158h-31l-137 89l-137 -89h-31l128 158h80z" />
    <glyph glyph-name="tilde.cap" 
d="M309 749q-29 0 -75 29.5t-67 29.5q-40 0 -72 -56l-22 12q28 67 51.5 93.5t58.5 26.5q29 0 75 -29.5t67 -29.5q40 0 72 57l22 -13q-28 -67 -51.5 -93.5t-58.5 -26.5z" />
    <glyph glyph-name="macron.cap" 
d="M109 768v58h284v-58h-284z" />
    <glyph glyph-name="breve.cap" 
d="M252 746q-67 0 -105 40t-38 117h31q13 -87 112 -87t112 87h30q0 -77 -37.5 -117t-104.5 -40z" />
    <glyph glyph-name="dotaccent.cap" 
d="M249 753q-30 0 -50.5 20.5t-20.5 50.5q0 29 20.5 49.5t50.5 20.5q31 0 51.5 -20.5t20.5 -49.5q0 -30 -20.5 -50.5t-51.5 -20.5z" />
    <glyph glyph-name="dieresis.cap" 
d="M87 822q0 28 19 47.5t47 19.5t48 -19.5t20 -47.5q0 -27 -20 -47t-48 -20q-27 0 -46.5 20t-19.5 47zM282 822q0 28 19 47.5t47 19.5t47.5 -19.5t19.5 -47.5q0 -27 -19.5 -47t-47.5 -20q-27 0 -46.5 20t-19.5 47z" />
    <glyph glyph-name="ring.cap" 
d="M199 822q0 -25 14 -41t39 -16t39 16t14 41t-14 40.5t-39 15.5t-39 -15.5t-14 -40.5zM162 822q0 38 25.5 63.5t64.5 25.5t64.5 -25.5t25.5 -63.5t-25.5 -64t-64.5 -26t-64.5 26t-25.5 64z" />
    <glyph glyph-name="hungarumlaut.cap" 
d="M151 898h109v-6l-140 -143h-27zM302 898h110v-6l-140 -143h-27z" />
    <glyph glyph-name="caron.cap" 
d="M418 907l-128 -158h-80l-128 158h31l137 -89l137 89h31z" />
    <glyph glyph-name="exclamdown.cap" horiz-adv-x="251" 
d="M50 637q0 31 22 53t53 22t53 -22t22 -53q0 -32 -22 -54t-53 -22t-53 22.5t-22 53.5zM112 492h26l59 -492h-144z" />
    <glyph glyph-name="questiondown.cap" horiz-adv-x="434" 
d="M119 121q0 -48 25.5 -76t71.5 -28t69.5 30t23.5 76q0 3 -0.5 24t-0.5 23h82q25 -19 25 -52q0 -56 -56.5 -92t-140.5 -36q-92 0 -146 43t-54 125q0 57 35.5 99.5t104.5 90.5q42 30 59.5 56.5t17.5 68.5v27h14q15 -15 28.5 -42.5t13.5 -57.5q0 -74 -82 -138
q-32 -25 -47 -39t-29 -41.5t-14 -60.5zM311 637q0 -31 -22 -53.5t-53 -22.5t-53 22t-22 54q0 31 22 53t53 22t53 -22t22 -53z" />
    <glyph glyph-name="guilsinglleft.cap" horiz-adv-x="286" 
d="M32 354v6l190 194h32l-117 -197l117 -196h-32z" />
    <glyph glyph-name="guilsinglright.cap" horiz-adv-x="286" 
d="M254 360v-6l-190 -193h-32l117 196l-117 197h32z" />
    <glyph glyph-name="guillemotleft.cap" horiz-adv-x="452" 
d="M32 354v6l190 194h32l-117 -197l117 -196h-32zM198 354v6l190 194h32l-117 -197l117 -196h-32z" />
    <glyph glyph-name="guillemotright.cap" horiz-adv-x="452" 
d="M420 360v-6l-190 -193h-32l117 196l-117 197h32zM254 360v-6l-190 -193h-32l117 196l-117 197h32z" />
    <glyph glyph-name="slash.cap" horiz-adv-x="372" 
d="M351 770l-282 -871h-48l282 871h48z" />
    <glyph glyph-name="backslash.cap" horiz-adv-x="372" 
d="M303 -101l-282 871h48l282 -871h-48z" />
    <glyph glyph-name="bar.cap" horiz-adv-x="214" 
d="M130 770v-871h-46v871h46z" />
    <glyph glyph-name="brokenbar.cap" horiz-adv-x="214" 
d="M130 770v-371h-46v371h46zM130 270v-371h-46v371h46z" />
    <glyph glyph-name="periodcentered.cap" horiz-adv-x="219" 
d="M30 358q0 34 23 57t56 23q34 0 57 -23t23 -57t-23 -56.5t-57 -22.5q-33 0 -56 22.5t-23 56.5z" />
    <glyph glyph-name="bullet.cap" horiz-adv-x="319" 
d="M30 358q0 53 38 91.5t91 38.5q54 0 92 -38.5t38 -91.5t-38 -91.5t-92 -38.5q-53 0 -91 38.5t-38 91.5z" />
    <glyph glyph-name="hyphen.cap" horiz-adv-x="320" 
d="M290 332h-260v53h260v-53z" />
    <glyph glyph-name="endash.cap" horiz-adv-x="540" 
d="M510 336h-480v42h480v-42z" />
    <glyph glyph-name="emdash.cap" horiz-adv-x="960" 
d="M930 378v-42h-900v42h900z" />
    <glyph glyph-name="parenleft.cap" horiz-adv-x="346" 
d="M156 334q0 -262 161 -436h-42q-97 84 -155.5 200t-58.5 236t58.5 236t155.5 200h42q-161 -174 -161 -436z" />
    <glyph glyph-name="parenright.cap" horiz-adv-x="346" 
d="M190 334q0 262 -162 436h43q97 -84 155.5 -200t58.5 -236t-58.5 -236t-155.5 -200h-43q162 174 162 436z" />
    <glyph glyph-name="bracketleft.cap" horiz-adv-x="318" 
d="M164 681v-693q0 -36 22 -46t89 -14v-29h-190v871h190v-29q-67 -4 -89 -14t-22 -46z" />
    <glyph glyph-name="bracketright.cap" horiz-adv-x="318" 
d="M153 -12v693q0 36 -22 46t-89 14v29h191v-871h-191v29q67 4 89 14t22 46z" />
    <glyph glyph-name="braceleft.cap" horiz-adv-x="347" 
d="M50 329v12q83 17 83 100v201q0 59 46.5 93.5t126.5 34.5v-23q-44 -5 -67 -27.5t-23 -70.5v-200q0 -50 -25 -74.5t-80 -39.5q55 -15 80 -39.5t25 -74.5v-200q0 -48 23 -70.5t67 -27.5v-23q-80 0 -126.5 34.5t-46.5 93.5v201q0 83 -83 100z" />
    <glyph glyph-name="braceright.cap" horiz-adv-x="349" 
d="M299 341v-12q-83 -17 -83 -100v-201q0 -59 -46.5 -93.5t-126.5 -34.5v23q44 5 67 27.5t23 70.5v200q0 50 25 74.5t80 39.5q-55 15 -80 39.5t-25 74.5v200q0 48 -23 70.5t-67 27.5v23q80 0 126.5 -34.5t46.5 -93.5v-201q0 -83 83 -100z" />
    <glyph glyph-name="at.cap" horiz-adv-x="856" 
d="M591 132q-71 0 -94.5 51.5t-4.5 131.5q-84 -182 -179 -182q-43 0 -69 33.5t-26 93.5q0 110 77 203.5t172 93.5q57 0 92 -35l67 36h20l-28 -88l-51 -204q-27 -104 33 -104q74 0 115 81t41 191q0 126 -71 203.5t-203 77.5q-112 0 -199.5 -62t-132.5 -160t-45 -210
q0 -142 85.5 -226t224.5 -84q83 0 143 17t130 57l10 -15q-54 -45 -131.5 -72t-161.5 -27q-170 0 -271.5 93t-101.5 256q0 120 56 226t160.5 172t233.5 66q160 0 251 -85.5t91 -226.5q0 -121 -65.5 -211.5t-167.5 -90.5zM352 191q45 0 97 88t85 214q-16 36 -61 36
t-83.5 -43.5t-59 -104.5t-20.5 -119q0 -31 11 -51t31 -20z" />
    </font>
</defs>
</svg>
